<?xml version="1.0" standalone="no"?>
<!DOCTYPE svg PUBLIC "-//W3C//DTD SVG 1.1//EN" "http://www.w3.org/Graphics/SVG/1.1/DTD/svg11.dtd" >
<svg xmlns="http://www.w3.org/2000/svg" xmlns:xlink="http://www.w3.org/1999/xlink" version="1.1">
<metadata>
Created by FontForge 20201107 at Wed Aug  4 12:37:12 2021
 By Robert Madole
Copyright (c) Font Awesome
</metadata>
<!-- Font Awesome Pro 5.15.4 by @fontawesome - https://fontawesome.com License - https://fontawesome.com/license (Commercial License) --><defs>
<font id="FontAwesome5Duotone-Solid" horiz-adv-x="512" >
  <font-face 
    font-family="Font Awesome 5 Duotone Solid"
    font-weight="900"
    font-stretch="normal"
    units-per-em="512"
    panose-1="2 0 5 3 0 0 0 0 0 0"
    ascent="448"
    descent="-64"
    bbox="-0.429688 -64.3984 640.027 448.146"
    underline-thickness="25"
    underline-position="-50"
    unicode-range="U+0020-10F8FF"
  />
    <missing-glyph />
    <glyph glyph-name="th-primary" unicode="&#xf00a;" 
d="M488 96c13.2461 0 24 -10.7539 24 -24v-80c0 -13.2461 -10.7539 -24 -24 -24h-101.33c-13.2461 0 -24 10.7539 -24 24v80c0 13.2461 10.7539 24 24 24h101.33zM306.67 256c13.2461 0 24 -10.7539 24 -24v-80c0 -13.2461 -10.7539 -24 -24 -24h-101.34
c-13.2461 0 -24 10.7539 -24 24v80c0 13.2461 10.7539 24 24 24h101.34zM488 416c13.2461 0 24 -10.7539 24 -24v-80c0 -13.2461 -10.7539 -24 -24 -24h-101.33c-13.2461 0 -24 10.7539 -24 24v80c0 13.2461 10.7539 24 24 24h101.33zM125.33 416
c13.2461 0 24 -10.7539 24 -24v-80c0 -13.2461 -10.7539 -24 -24 -24h-101.33c-13.2461 0 -24 10.7539 -24 24v80c0 13.2461 10.7539 24 24 24h101.33zM125.33 96c13.2461 0 24 -10.7539 24 -24v-80c0 -13.2461 -10.7539 -24 -24 -24h-101.33c-13.2461 0 -24 10.7539 -24 24
v80c0 13.2461 10.7539 24 24 24h101.33z" />
    <glyph glyph-name="home-primary" unicode="&#xf015;" horiz-adv-x="576" 
d="M573.32 179.65l-25.5 -31c-2.20215 -2.68164 -5.54199 -4.39258 -9.27832 -4.39258c-2.8916 0 -5.54883 1.03613 -7.62207 2.74219l-235.229 193.79c-2.0918 1.68555 -4.75 2.69531 -7.6416 2.69531c-2.89258 0 -5.56738 -1.00977 -7.65918 -2.69531l-235.22 -193.79
c-2.07227 -1.70312 -4.72363 -2.72559 -7.6123 -2.72559c-3.73438 0 -7.07617 1.69727 -9.27734 4.37598l-25.5 31c-1.71289 2.07422 -2.74219 4.7334 -2.74219 7.63184c0 3.72266 1.6875 7.05566 4.35156 9.25781l253.101 208.46
c8.29004 6.82227 18.9043 10.9209 30.4688 10.9209s22.2402 -4.09863 30.5312 -10.9209l89.5098 -73.6104v72.6104c0 6.62305 5.37695 12 12 12h56c6.62305 0 12 -5.37695 12 -12v-138.51l83.5996 -68.9102c2.71387 -2.20117 4.4502 -5.56152 4.4502 -9.32422
c0 -2.88379 -1.03223 -5.53516 -2.72949 -7.60547z" />
    <glyph glyph-name="eye-primary" unicode="&#xf06e;" horiz-adv-x="576" 
d="M380.66 167.13c-10.96 -40.8252 -48.251 -70.918 -92.5166 -70.918c-52.8623 0 -95.7793 42.918 -95.7793 95.7803c0 8.78223 1.20801 17.2354 3.42578 25.3174c7.93164 -5.83594 17.7246 -9.28516 28.3184 -9.28516c26.4092 0 47.8496 21.4404 47.8496 47.8496
c0 10.5928 -3.43164 20.4043 -9.26758 28.3359c8.31738 2.37402 17.0986 3.64551 26.1748 3.64551c52.5977 0 95.3008 -42.7021 95.3008 -95.2998c0 -8.81738 -1.23047 -17.3193 -3.47559 -25.4258h-0.0302734z" />
    <glyph glyph-name="eye-slash-primary" unicode="&#xf070;" horiz-adv-x="640" 
d="M636.64 -32.5498l-19.6396 -25.2705c-2.92871 -3.76172 -7.5 -6.18359 -12.6318 -6.18359c-3.69727 0 -7.10742 1.27539 -9.81836 3.38379l-588.37 454.72c-3.76562 2.92871 -6.18945 7.50195 -6.18945 12.6377c0 3.69434 1.27344 7.10352 3.37988 9.8125
l19.6299 25.2705c2.92871 3.76172 7.5 6.18359 12.6318 6.18359c3.69727 0 7.10742 -1.27539 9.81836 -3.38379l588.37 -454.72c3.76855 -2.92871 6.19629 -7.50391 6.19629 -12.6426c0 -3.69141 -1.27246 -7.09863 -3.37695 -9.80762z" />
    <glyph glyph-name="tty-primary" unicode="&#xf1e4;" 
d="M509.22 321.5l-43.2197 -69.1396c-3.23438 -5.20801 -9.00684 -8.67969 -15.583 -8.67969c-2.38965 0 -4.67285 0.485352 -6.7666 1.31934l-86.4307 34.5703c-6.75488 2.70898 -11.5312 9.32031 -11.5312 17.0391c0 0.620117 0.0410156 1.20605 0.101562 1.81055
l5.9502 59.5801c-29.8848 10.7285 -62.0869 16.5752 -95.6445 16.5752c-33.5566 0 -65.9512 -5.84668 -95.8359 -16.5752l6 -59.5303c0.0605469 -0.603516 0.0908203 -1.2168 0.0908203 -1.83691c0 -7.71777 -4.76562 -14.3037 -11.5205 -17.0127l-86.4805 -34.6201
c-2.09277 -0.832031 -4.375 -1.29004 -6.76367 -1.29004c-6.57715 0 -12.3486 3.44336 -15.5859 8.65039l-43.21 69.1396c-1.76172 2.81348 -2.78027 6.13965 -2.78027 9.70117c0 5.05762 2.04102 9.66211 5.36035 12.9785c138.53 138.53 362.939 138.32 501.26 0
c3.32031 -3.31934 5.375 -7.9043 5.375 -12.9658c0 -3.55762 -1.0293 -6.90137 -2.78516 -9.71387z" />
    <glyph glyph-name="phone-volume-primary" unicode="&#xf2a0;" horiz-adv-x="384" 
d="M84.3799 265.76c-10.0625 -28.0166 -15.5459 -58.208 -15.5459 -89.6699s5.4834 -61.833 15.5459 -89.8496l55.8105 5.58008c0.571289 0.0576172 1.15039 0.0869141 1.7373 0.0869141c7.23047 0 13.3984 -4.4668 15.9326 -10.7969l32.3994 -81
c0.789062 -1.97168 1.22363 -4.12207 1.22363 -6.37305c0 -6.14746 -3.21191 -11.5439 -8.07324 -14.5771l-64.8105 -40.5498c-2.64258 -1.65625 -5.7666 -2.61328 -9.11328 -2.61328c-4.73438 0 -9.04492 1.90332 -12.1562 5.00293c-129.87 129.91 -129.68 340.29 0 470
c3.11328 3.11035 7.41113 5.03516 12.1543 5.03516c3.33887 0 6.47656 -0.966797 9.11523 -2.61523l64.8105 -40.5098c4.86914 -3.03418 8.1123 -8.4375 8.1123 -14.5918c0 -2.26465 -0.464844 -4.42773 -1.2627 -6.4082l-32.4102 -81
c-2.53125 -6.33496 -8.72656 -10.8154 -15.96 -10.8154c-0.582031 0 -1.13281 0.0390625 -1.69922 0.0957031z" />
    <glyph glyph-name="battery-slash-primary" unicode="&#xf377;" horiz-adv-x="640" 
d="M633.83 -10.1104c3.77148 -2.92773 6.18066 -7.50977 6.18066 -12.6494c0 -3.7002 -1.25879 -7.1084 -3.37109 -9.82031l-19.6396 -25.2695c-2.92871 -3.76465 -7.50684 -6.16895 -12.6406 -6.16895c-3.7041 0 -7.11621 1.26172 -9.8291 3.37891l-588.351 454.729
c-3.76562 2.92871 -6.1709 7.50781 -6.1709 12.6426c0 3.69434 1.25488 7.09766 3.36133 9.80762l19.6299 25.29c2.92871 3.76367 7.50684 6.16797 12.6406 6.16797c3.7041 0 7.11621 -1.26172 9.8291 -3.37793z" />
    <glyph glyph-name="diagnoses-primary" unicode="&#xf470;" horiz-adv-x="640" 
d="M112 192c-8.83105 0 -16 7.16895 -16 16s7.16895 16 16 16s16 -7.16895 16 -16s-7.16895 -16 -16 -16zM496 192c-8.83105 0 -16 7.16895 -16 16s7.16895 16 16 16s16 -7.16895 16 -16s-7.16895 -16 -16 -16zM624 0c8.83105 0 16 -7.16895 16 -16v-32
c0 -8.83105 -7.16895 -16 -16 -16h-608c-8.83105 0 -16 7.16895 -16 16v32c0 8.83105 7.16895 16 16 16h608z" />
    <glyph glyph-name="box-full-primary" unicode="&#xf49c;" horiz-adv-x="640" 
d="M194.24 304.3l-65.54 8.2998c-0.100586 2.5 -0.700195 4.90039 -0.700195 7.40039c0 70.6455 57.3545 128 128 128c69.7402 0 126 -55.7002 127.74 -125l41.7002 114.4c2.22656 6.15723 8.12891 10.5527 15.0518 10.5527c1.91211 0 3.74707 -0.336914 5.44824 -0.953125
l55.46 -20.2002c6.15723 -2.22656 10.5527 -8.12891 10.5527 -15.0518c0 -1.91211 -0.336914 -3.74707 -0.953125 -5.44824l-35.6602 -98.2998l-155.34 -19.7002l-8.2002 1c5.14062 9.0498 8.13965 19.5713 8.2002 30.7002c0 35.3223 -28.6777 64 -64 64
s-64 -28.6777 -64 -64c0.0869141 -5.42578 0.867188 -10.6875 2.24023 -15.7002zM638.34 176.2c1.07617 -2.18848 1.6875 -4.66406 1.6875 -7.26562c0 -7.51465 -5.04297 -13.8604 -11.9277 -15.835l-197.899 -56.5
c-1.41504 -0.396484 -2.89355 -0.629883 -4.43457 -0.629883c-5.95898 0 -11.1826 3.17871 -14.0654 7.93066l-91.7002 152.1l250.14 31.9004c0.69043 0.0888672 1.36719 0.149414 2.08105 0.149414c6.39746 0 11.9414 -3.68652 14.6191 -9.0498zM53.2402 279
c2.68262 5.35645 8.19824 9.02246 14.5928 9.02246c0.678711 0 1.34863 -0.0419922 2.00684 -0.12207l250.16 -31.9004l-91.7598 -152c-2.88379 -4.75195 -8.09277 -7.91016 -14.0518 -7.91016c-1.54102 0 -3.0332 0.212891 -4.44824 0.610352l-197.9 56.5
c-6.82812 1.94336 -11.8281 8.24512 -11.8281 15.6934c0 2.62598 0.623047 5.1084 1.72852 7.30664z" />
    <glyph glyph-name="box-open-primary" unicode="&#xf49e;" horiz-adv-x="640" 
d="M638.34 304.16c1.06543 -2.17969 1.6709 -4.64258 1.6709 -7.23047c0 -7.50879 -5.03516 -13.8506 -11.9111 -15.8301l-197.899 -56.5c-1.41504 -0.396484 -2.89355 -0.629883 -4.43457 -0.629883c-5.95898 0 -11.1826 3.17871 -14.0654 7.93066l-91.7002 152.1
l250.14 31.9004c0.69043 0.0888672 1.36719 0.149414 2.08105 0.149414c6.39746 0 11.9414 -3.68652 14.6191 -9.0498zM53.2402 407c2.69043 5.33594 8.19434 8.98438 14.5732 8.98438c0.686523 0 1.3623 -0.0419922 2.02637 -0.124023l250.16 -31.8604l-91.7598 -152.04
c-2.88379 -4.75195 -8.09277 -7.91016 -14.0518 -7.91016c-1.54102 0 -3.0332 0.212891 -4.44824 0.610352l-197.9 56.5c-6.82812 1.94336 -11.8281 8.24512 -11.8281 15.6934c0 2.62598 0.623047 5.1084 1.72852 7.30664z" />
    <glyph glyph-name="home-heart-primary" unicode="&#xf4c9;" horiz-adv-x="576" 
d="M378.21 162.93c13.3926 -11.1191 21.8936 -27.8848 21.8936 -46.6348c0 -16.5371 -6.63867 -31.5361 -17.3936 -42.4746l-84.7002 -85.5898c-2.52637 -2.54883 -6.03223 -4.12891 -9.90137 -4.12891s-7.37207 1.58008 -9.89844 4.12891l-84.7002 85.5898
c-10.792 10.9531 -17.4863 25.9795 -17.4863 42.5557c0 18.6934 8.47363 35.4229 21.7861 46.5537c24 20 59.7002 16.3906 81.6006 -5.80957l8.59961 -8.69043l8.60059 8.69043c22 22.2002 57.6992 25.8096 81.5996 5.80957zM570.81 211.73
c3.26953 -2.9502 5.31641 -7.22363 5.31641 -11.9688c0 -4.13477 -1.56152 -7.9082 -4.12598 -10.7617l-21.4004 -23.79c-2.92969 -3.2627 -7.18457 -5.30762 -11.9111 -5.30762c-4.10645 0 -7.85449 1.55078 -10.6885 4.09766l-229.29 202.32
c-2.83398 2.47266 -6.55469 3.97168 -10.6084 3.97168c-4.05273 0 -7.75781 -1.49902 -10.5918 -3.97168l-229.399 -202.2c-2.83496 -2.5498 -6.58887 -4.11133 -10.6982 -4.11133c-4.72363 0 -8.97266 2.05176 -11.9023 5.31152l-21.3994 23.7998
c-2.55371 2.83496 -4.11621 6.5918 -4.11621 10.7031c0 4.72656 2.05273 8.97656 5.31543 11.9072l256 226c7.08691 6.37402 16.4941 10.2549 26.7676 10.2549c10.2725 0 19.6465 -3.88086 26.7324 -10.2549l101.301 -89.4307v51.7002c0 8.83105 7.16895 16 16 16h64
c8.83008 0 16 -7.16895 16 -16v-136.48z" />
    <glyph glyph-name="drumstick-primary" unicode="&#xf6d6;" 
d="M160.1 256c0 64 27.6006 107 63.1006 142.4c66.0996 66.0996 173.2 66 239.3 0s66 -173.2 0 -239.301c-35.5 -35.3994 -78.5 -63.0996 -142.4 -63.0996h-96.0996c-35.2998 0 -64 28.7002 -64 64z" />
    <glyph glyph-name="drumstick-bite-primary" unicode="&#xf6d7;" 
d="M160.06 256c0 64 27.7002 107 63.1807 142.43c30.6748 30.6348 73.0166 49.5889 119.751 49.5889c46.7334 0 89.124 -18.9541 119.799 -49.5889c34.3203 -34.2793 50.4404 -79.5996 49.1396 -124.56c-42 22.6602 -94.3799 17.5596 -128.77 -16.7998
c-40.8799 -40.8398 -40.6904 -107.17 -1.0498 -151.07c-18.9648 -6.45312 -39.2891 -9.9541 -60.4248 -9.9541c-0.487305 0 -0.988281 -0.0498047 -1.47559 -0.0458984h-96.21c-35.3223 0 -64 28.6777 -64 64z" />
    <glyph glyph-name="pie-primary" unicode="&#xf705;" horiz-adv-x="576" 
d="M544 208c17.6611 0 32 -14.3389 32 -32s-14.3389 -32 -32 -32c-32 0 -49.9404 13.4805 -61.7998 22.4199c-9.04004 6.77051 -12.7402 9.58008 -23.3799 9.58008c-10.6406 0 -14.3906 -2.80957 -23.4404 -9.58984c-11.8896 -8.92969 -29.8398 -22.4102 -61.8398 -22.4102
s-49.9697 13.4902 -61.8604 22.4102c-9.0498 6.78027 -12.79 9.58984 -23.4395 9.58984c-10.6504 0 -14.4502 -2.80957 -23.4502 -9.58984c-11.8799 -8.92969 -29.8604 -22.4102 -61.8799 -22.4102c-32.0205 0 -50 13.4697 -61.9102 22.3896
c-9.08008 6.80078 -12.8496 9.61035 -23.5498 9.61035s-14.4502 -2.80957 -23.5303 -9.61035c-11.9199 -8.91992 -29.9199 -22.3896 -61.9199 -22.3896c-17.6611 0 -32 14.3389 -32 32s14.3389 32 32 32c6.4502 0 10.3799 1.16992 14.4502 3.4502
c34.5498 100.34 129.479 172.55 241.55 172.55s206.93 -72.1699 241.53 -172.48c4.09961 -2.31934 8.0293 -3.51953 14.4697 -3.51953zM206.31 296.84c9.4707 18.9404 -19.0898 33.1602 -28.6191 14.3105l-16 -32c-9.55078 -19.1006 19.1797 -33.1406 28.6191 -14.3105z
M304 272v32c0 21.1797 -32 21.1699 -32 0v-32c0 -21.1797 32 -21.1699 32 0zM385.69 264.84c9.44922 -18.8398 38.1494 -4.74023 28.6191 14.3105l-16 32c-9.48926 18.8799 -38.0996 4.63965 -28.6191 -14.3105z" />
    <glyph glyph-name="turkey-primary" unicode="&#xf725;" horiz-adv-x="640" 
d="M639.38 305.42c-4.41992 -29 -23.9102 -45.46 -52.1104 -44.1396c-0.949219 0 -1.90918 0.109375 -2.86914 0.189453c-9.69727 0.871094 -18.9932 3.69531 -27.2207 8c-5.40918 2.92383 -11.5928 4.74707 -18.0801 5.10059
c-11.2998 0.529297 -23.4492 -3.93066 -36.0996 -13.2705c-11.8799 -8.75977 -23.9297 -21.5498 -35.8203 -38c-23 -31.7998 -37.71 -66.6797 -41.2295 -78.5898c-13.7598 -46.5 -50.9004 -80.1396 -94.5605 -85.7002c-5.26855 -0.6875 -10.6416 -1.04297 -16.0967 -1.04297
c-1.91113 0 -3.60254 0.046875 -5.49316 0.132812c-33.3848 1.40625 -63.0889 17.2139 -82.9199 41.4502c-25.8701 31.2598 -33.6494 73.3604 -20.7998 112.601c10.7266 32.1953 35.5039 57.8965 67.1201 69.8496c16.4297 6.32031 35.0693 9.37988 55.3799 9.09961
c14.2002 -0.189453 41.3799 3.11035 71.2598 13c30.5801 10.1309 54.4697 24.29 67.2705 39.8906c10 12.2197 13.3994 25.21 10.2793 39.7295c-0.75293 3.5752 -1.14941 7.28027 -1.14941 11.0781c0 17.6992 8.55762 33.3398 21.8096 43.0918
c8.52734 6.33594 19.0869 10.0859 30.5166 10.0859c0.84668 0 1.69629 0.00488281 2.5332 -0.0351562c15.4893 -0.740234 29.2695 -8.0918 38.5107 -19.3301c9.55957 -11.6406 13.54 -26.5703 11.21 -42v-0.169922c-1.31445 -8.0918 -4.47949 -15.6777 -9 -22.1201
c5.0498 1.65137 10.4414 2.54395 16.04 2.54395c0.824219 0 1.61426 -0.00585938 2.42969 -0.0439453c1.66016 -0.0800781 3.33008 -0.240234 5 -0.480469h0.139648c28.5703 -4.43945 48.3604 -31.7295 43.9502 -60.9199z" />
    <glyph glyph-name="ball-pile-primary" unicode="&#xf77e;" horiz-adv-x="576" 
d="M80 96c44.1533 0 80 -35.8467 80 -80s-35.8467 -80 -80 -80s-80 35.8467 -80 80s35.8467 80 80 80zM288 448c44.1533 0 80 -35.8467 80 -80s-35.8467 -80 -80 -80s-80 35.8467 -80 80s35.8467 80 80 80zM288 96c44.1533 0 80 -35.8467 80 -80s-35.8467 -80 -80 -80
s-80 35.8467 -80 80s35.8467 80 80 80zM496 96c44.1533 0 80 -35.8467 80 -80s-35.8467 -80 -80 -80s-80 35.8467 -80 80s35.8467 80 80 80z" />
    <glyph glyph-name="biohazard-primary" unicode="&#xf780;" horiz-adv-x="576" 
d="M575.53 164.53c0.294922 -0.849609 0.466797 -1.75879 0.466797 -2.70801c0 -2.98828 -1.58887 -5.60938 -3.9668 -7.0625c-1.18164 -0.716797 -2.5752 -1.13965 -4.05664 -1.13965c-2.37793 0 -4.50879 1.06348 -5.94336 2.74023
c-9.40039 10.79 -19 18.9893 -29.2002 25.0898c-57.3105 33.8799 -130.82 13.6797 -163.92 -45c-33.1006 -58.6807 -13.4004 -133.95 43.8994 -167.84c10.21 -6.10059 21.9102 -10.5 35.8105 -13.4004c3.65625 -0.807617 6.40137 -4.06738 6.40137 -7.96582
c0 -0.0449219 -0.000976562 -0.0898438 -0.00195312 -0.133789c0.000976562 -0.0292969 -0.00585938 -0.0556641 -0.00585938 -0.0839844c0 -3.91504 -2.79297 -7.18262 -6.49414 -7.91602c-10.3359 -2.04785 -21.0684 -3.01758 -32.002 -3.01758
c-30.3672 0 -58.8154 8.28125 -83.208 22.707c-18.0098 10.6006 -32.9092 24.4902 -45.3096 40.0898c-12.4004 -15.5996 -27.3096 -29.4893 -45.3096 -40.0898c-24.3965 -14.4326 -52.8984 -22.8213 -83.2725 -22.8213c-10.917 0 -21.5859 1.07031 -31.9082 3.11133
c-3.7002 0.734375 -6.5 4 -6.5 7.91406v0.0859375c0 0.015625 0.00488281 0.0292969 0.00488281 0.0439453c0 3.91992 2.73242 7.20605 6.39551 8.05664c13.8096 3 25.5996 7.2998 35.8096 13.3994c57.2998 33.8398 77 109.15 43.9004 167.84
c-33.1006 58.6904 -106.61 78.8906 -163.92 45c-10.2002 -6 -19.7998 -14.2998 -29.2002 -25.0898c-1.43457 -1.67676 -3.57227 -2.73047 -5.9502 -2.73047c-1.48145 0 -2.86816 0.413086 -4.0498 1.13086c-2.37207 1.46582 -3.94238 4.08789 -3.94238 7.07812
c0 0.949219 0.15918 1.86133 0.452148 2.71191c13.2998 39.0898 39.7002 71.8799 74.2998 92.3701c16.6816 9.69629 35.5635 16.6279 55.3105 19.8994c-6.10059 17.6904 -10 36.3906 -10 56.1807c0.0517578 42.6582 15.4922 81.8574 41 112.159
c1.44238 1.74805 3.62988 2.85254 6.07031 2.85254c1.43164 0 2.77344 -0.382812 3.92969 -1.05176c2.41211 -1.44336 4.01758 -4.07812 4.01758 -7.09082c0 -0.908203 -0.146484 -1.78223 -0.417969 -2.59961c-4.39941 -13.7998 -6.59961 -26.3896 -6.59961 -38.4902
c0 -67.7793 53.7998 -122.859 120 -122.859s120 55.0801 120 122.859c0 12.2002 -2.10059 24.6904 -6.60059 38.4902c-0.270508 0.817383 -0.428711 1.6875 -0.428711 2.5957c0 3.0127 1.61719 5.65137 4.0293 7.09473c1.15625 0.671875 2.50586 1.06738 3.93945 1.06738
c2.44043 0 4.62207 -1.11719 6.06055 -2.86816c25.5479 -30.2734 41 -69.4844 41 -112.159c0 -19.79 -4 -38.4902 -10 -56.1807c19.7529 -3.25586 38.6367 -10.1885 55.3096 -19.8994c34.6006 -20.3701 61 -53.2803 74.1006 -92.3701zM288 127.95
c26.4922 0 48 21.5078 48 48s-21.5078 48 -48 48s-48 -21.5078 -48 -48s21.5078 -48 48 -48z" />
    <glyph glyph-name="bacon-primary" unicode="&#xf7e5;" horiz-adv-x="576" 
d="M252.88 77.6602c-39.79 -39.7803 -69 -50.7305 -97.2998 -61.3203c-23.8604 -9 -46.5996 -17.6602 -76.71 -45.3301l-45.3301 45.1602c35.1699 32.5996 62.1699 43 88.1699 52.7305c26.2598 9.83984 51.0498 19.1191 85.9102 54
c34.8604 34.8799 44.2002 59.6992 54.0498 86c10.6104 28.29 21.5898 57.54 61.3701 97.3398s69 50.7695 97.3398 61.3799c23.8799 9 46.6396 17.6797 76.79 45.3701l45.3105 -45.2002c-35.1904 -32.6396 -62.1709 -43 -88.2402 -52.7998
c-26.2598 -9.85059 -51.0605 -19.1602 -85.9502 -54s-44.1904 -59.6904 -54 -86c-10.6396 -28.3203 -21.6201 -57.5498 -61.4102 -97.3301z" />
    <glyph glyph-name="book-medical-primary" unicode="&#xf7e6;" horiz-adv-x="448" 
d="M96 64c-16 0 -32 -12.7998 -32 -32s12.7998 -32 32 -32h328c13.2461 0 24 -10.7539 24 -24v-16c0 -13.2461 -10.7539 -24 -24 -24h-328c-52.9834 0 -96 43.0166 -96 96v320c0 52.9834 43.0166 96 96 96h320c17.6611 0 32 -14.3389 32 -32v-328
c0 -13.2461 -10.7539 -24 -24 -24h-328zM144 280v-48c0 -4.41504 3.58496 -8 8 -8h56v-56c0 -4.41504 3.58496 -8 8 -8h48c4.41504 0 8 3.58496 8 8v56h56c4.41504 0 8 3.58496 8 8v48c0 4.41504 -3.58496 8 -8 8h-56v56c0 4.41504 -3.58496 8 -8 8h-48
c-4.41504 0 -8 -3.58496 -8 -8v-56h-56c-4.41504 0 -8 -3.58496 -8 -8z" />
    <glyph glyph-name="book-user-primary" unicode="&#xf7e7;" horiz-adv-x="448" 
d="M96 64c-16 0 -32 -12.7998 -32 -32s12.7998 -32 32 -32h328c13.2461 0 24 -10.7539 24 -24v-16c0 -13.2461 -10.7539 -24 -24 -24h-328c-52.9834 0 -96 43.0166 -96 96v320c0 52.9834 43.0166 96 96 96h320c17.6611 0 32 -14.3389 32 -32v-328
c0 -13.2461 -10.7539 -24 -24 -24h-328zM240 384c-35.3223 0 -64 -28.6777 -64 -64s28.6777 -64 64 -64s64 28.6777 64 64s-28.6777 64 -64 64zM128 166.4v-19.2002c0 -10.6006 10 -19.2002 22.4004 -19.2002h179.3c12.3994 0 22.3994 8.58984 22.3994 19.2002v19.2002
c0 31.8096 -30.0898 57.5996 -67.1992 57.5996h-5c-12.2451 -5.125 -25.8242 -7.95605 -39.9199 -7.95605s-27.5352 2.83105 -39.7803 7.95605h-5c-37.1104 0 -67.2002 -25.79 -67.2002 -57.5996z" />
    <glyph glyph-name="brackets-primary" unicode="&#xf7e9;" horiz-adv-x="448" 
d="M144 416c8.83105 0 16 -7.16895 16 -16v-32c0 -8.83105 -7.16895 -16 -16 -16h-80v-320h80c8.83105 0 16 -7.16895 16 -16v-32c0 -8.83105 -7.16895 -16 -16 -16h-112c-17.6611 0 -32 14.3389 -32 32v384c0 17.6611 14.3389 32 32 32h112z" />
    <glyph glyph-name="brackets-curly-primary" unicode="&#xf7ea;" horiz-adv-x="576" 
d="M208 416c8.83105 0 16 -7.16895 16 -16v-32c0 -8.83105 -7.16895 -16 -16 -16h-48c-17.6611 0 -32 -14.3389 -32 -32v-37.4805c0 -26.4873 -10.7373 -50.5127 -28.1104 -67.8896l-22.6299 -22.6299l22.6104 -22.6299c17.3828 -17.377 28.1289 -41.3936 28.1299 -67.8896
v-37.4805c0 -17.6611 14.3389 -32 32 -32h48c8.83105 0 16 -7.16895 16 -16v-32c0 -8.83105 -7.16895 -16 -16 -16h-48c-52.9834 0 -96 43.0166 -96 96v37.4902c-0.00195312 8.83301 -3.58008 16.8408 -9.37012 22.6396l-45.25 45.25
c-5.79102 5.79199 -9.37402 13.7998 -9.37402 22.6299c0 8.8291 3.58301 16.8281 9.37402 22.6201l45.2402 45.2402c5.79004 5.80371 9.37012 13.8145 9.37988 22.6494v37.4805c0 52.9834 43.0166 96 96 96h48z" />
    <glyph glyph-name="bread-loaf-primary" unicode="&#xf7eb;" horiz-adv-x="640" 
d="M640 256c0 -35.3496 -26.8604 -64 -60 -64h-4v-192c0 -17.6611 -14.3389 -32 -32 -32h-104.9c5.57031 9.35742 8.83496 20.3447 8.90039 32v164.54c37.0801 12.4004 64 48.71 64 91.46c0 67.3799 -46.7998 125.61 -119.19 159.76
c2.41016 0 4.76074 0.240234 7.19043 0.240234c132.55 0 240 -71.6299 240 -160z" />
    <glyph glyph-name="bread-slice-primary" unicode="&#xf7ec;" horiz-adv-x="576" 
d="M152 48c13.2461 0 24 -10.7539 24 -24s-10.7539 -24 -24 -24s-24 10.7539 -24 24s10.7539 24 24 24zM152 144c13.2461 0 24 -10.7539 24 -24s-10.7539 -24 -24 -24s-24 10.7539 -24 24s10.7539 24 24 24zM248 48c13.2461 0 24 -10.7539 24 -24s-10.7539 -24 -24 -24
s-24 10.7539 -24 24s10.7539 24 24 24z" />
    <glyph glyph-name="burrito-primary" unicode="&#xf7ed;" 
d="M505.26 294.12c4.30664 -9.81641 6.7373 -20.7227 6.74023 -32.1201c0 -22 -9.37012 -42 -24.29 -56.75c-36.3789 31.582 -83.9707 50.75 -135.88 50.75c-12.0674 -0.00878906 -23.708 -1.0332 -35.2197 -3c2.09668 11.7275 3.19043 23.7998 3.19043 36.126
c0 51.5859 -19.207 98.6494 -50.8008 134.614c14.7998 14.8896 34.7402 24.2598 56.7998 24.2598h0.0849609c11.3965 0 22.2988 -2.42676 32.1152 -6.73047c9.37305 4.28125 19.79 6.66797 30.7607 6.66797c33.3047 0 61.5605 -21.9551 70.9297 -52.1973
c30.2441 -9.31543 52.2617 -37.4668 52.3096 -70.7402v-0.208984c0 -10.9268 -2.43848 -21.3555 -6.74023 -30.6709z" />
    <glyph glyph-name="chart-scatter-primary" unicode="&#xf7ee;" 
d="M160 192c17.6611 0 32 -14.3389 32 -32s-14.3389 -32 -32 -32s-32 14.3389 -32 32s14.3389 32 32 32zM416 352c17.6611 0 32 -14.3389 32 -32s-14.3389 -32 -32 -32s-32 14.3389 -32 32s14.3389 32 32 32zM192 352c17.6611 0 32 -14.3389 32 -32s-14.3389 -32 -32 -32
s-32 14.3389 -32 32s14.3389 32 32 32zM384 192c17.6611 0 32 -14.3389 32 -32s-14.3389 -32 -32 -32s-32 14.3389 -32 32s14.3389 32 32 32zM288 256c17.6611 0 32 -14.3389 32 -32s-14.3389 -32 -32 -32s-32 14.3389 -32 32s14.3389 32 32 32z" />
    <glyph glyph-name="cheese-primary" unicode="&#xf7ef;" 
d="M512 160v-160c0 -17.6611 -14.3389 -32 -32 -32h-448c-17.6611 0 -32 14.3389 -32 32v160h512z" />
    <glyph glyph-name="cheese-swiss-primary" unicode="&#xf7f0;" 
d="M416 160h96v-160c0 -17.6611 -14.3389 -32 -32 -32h-448c-17.6611 0 -32 14.3389 -32 32v160h320c0 -26.4922 21.5078 -48 48 -48s48 21.5078 48 48zM176 16c26.4922 0 48 21.5078 48 48s-21.5078 48 -48 48s-48 -21.5078 -48 -48s21.5078 -48 48 -48z" />
    <glyph glyph-name="clinic-medical-primary" unicode="&#xf7f2;" horiz-adv-x="576" 
d="M570.7 211.71c3.26562 -2.93066 5.31348 -7.1875 5.31348 -11.916c0 -4.10449 -1.54883 -7.85059 -4.09375 -10.6836l-21.4004 -23.8203c-2.92969 -3.25977 -7.18262 -5.30273 -11.9062 -5.30273c-4.10938 0 -7.8584 1.55273 -10.6934 4.10254l-229.32 202.271
c-2.82031 2.48828 -6.53906 3.99902 -10.5918 3.99902c-4.05371 0 -7.75684 -1.51074 -10.5781 -3.99902l-229.33 -202.271c-2.83301 -2.54395 -6.58301 -4.10156 -10.6875 -4.10156c-4.72363 0 -8.97266 2.05176 -11.9023 5.31152l-21.4102 23.8203
c-2.54395 2.83301 -4.10156 6.58301 -4.10156 10.6875c0 4.72363 2.05176 8.97266 5.31152 11.9023l256 226c7.06934 6.3916 16.4707 10.2852 26.7412 10.2852c10.2715 0 19.6396 -3.89355 26.709 -10.2852zM376 128c4.41504 0 8 -3.58496 8 -8v-48
c0 -4.41504 -3.58496 -8 -8 -8h-56v-56c0 -4.41504 -3.58496 -8 -8 -8h-48c-4.41504 0 -8 3.58496 -8 8v56h-56c-4.41504 0 -8 3.58496 -8 8v48c0 4.41504 3.58496 8 8 8h56v56c0 4.41504 3.58496 8 8 8h48c4.41504 0 8 -3.58496 8 -8v-56h56z" />
    <glyph glyph-name="clipboard-user-primary" unicode="&#xf7f3;" horiz-adv-x="384" 
d="M236.9 96c37.0996 0 67.1992 -25.79 67.1992 -57.5996l-0.0996094 -19.2002c0 -10.6104 -10 -19.2002 -22.4004 -19.2002h-179.199c-12.4004 0 -22.4004 8.59961 -22.4004 19.2002v19.2002c0 31.8096 30.0898 57.5996 67.2002 57.5996h5
c12.2451 -5.125 25.8242 -7.95605 39.9199 -7.95605s27.5352 2.83105 39.7803 7.95605h5zM128 192c0 35.3223 28.6777 64 64 64s64 -28.6777 64 -64s-28.6777 -64 -64 -64s-64 28.6777 -64 64zM256 384c35.3223 0 64 -28.6777 64 -64h-256c0 35.3223 28.6777 64 64 64
c0 35.3223 28.6777 64 64 64s64 -28.6777 64 -64zM192 360c0.0205078 0 0.0400391 -0.000976562 0.0605469 -0.000976562c13.2119 0 23.9395 10.7266 23.9395 23.9395v0.0615234c0 13.2461 -10.7539 24 -24 24s-24 -10.7539 -24 -24s10.7539 -24 24 -24z" />
    <glyph glyph-name="comment-alt-medical-primary" unicode="&#xf7f4;" 
d="M160 264c0 4.41504 3.58496 8 8 8h56v56c0 4.41504 3.58496 8 8 8h48c4.41504 0 8 -3.58496 8 -8v-56h56c4.41504 0 8 -3.58496 8 -8v-48c0 -4.41504 -3.58496 -8 -8 -8h-56v-56c0 -4.41504 -3.58496 -8 -8 -8h-48c-4.41504 0 -8 3.58496 -8 8v56h-56
c-4.41504 0 -8 3.58496 -8 8v48z" />
    <glyph glyph-name="comment-medical-primary" unicode="&#xf7f5;" 
d="M160 232c0 4.41504 3.58496 8 8 8h56v56c0 4.41504 3.58496 8 8 8h48c4.41504 0 8 -3.58496 8 -8v-56h56c4.41504 0 8 -3.58496 8 -8v-48c0 -4.41504 -3.58496 -8 -8 -8h-56v-56c0 -4.41504 -3.58496 -8 -8 -8h-48c-4.41504 0 -8 3.58496 -8 8v56h-56
c-4.41504 0 -8 3.58496 -8 8v48z" />
    <glyph glyph-name="croissant-primary" unicode="&#xf7f6;" 
d="M509.89 267.34c1.33594 -3.52246 2.10938 -7.35742 2.10938 -11.3457c0 -17.6611 -14.3389 -32 -32 -32c-1.80176 0 -3.56836 0.149414 -5.28906 0.435547l-86.7998 14.4707l77.79 99.0996c19.0215 -20.2871 34.0967 -44.2109 44.1895 -70.6602zM234.89 425.41
l63.9902 -208c0.90332 -2.95801 1.40137 -6.10156 1.40137 -9.35352c0 -8.84277 -3.59473 -16.8525 -9.40137 -22.6465l-28.3203 -28.3105c-5.79395 -5.80566 -13.8066 -9.38965 -22.6494 -9.38965c-3.25195 0 -6.3916 0.486328 -9.35059 1.38965l-208 64
c-13.0391 4.04395 -22.5186 16.1885 -22.5186 30.5508c0 2.68945 0.333008 5.30273 0.958984 7.7998c23.8887 95.9492 99.5762 171.646 195.52 195.55c2.5 0.62793 5.09668 0.963867 7.79004 0.963867c14.374 0 26.5469 -9.49707 30.5801 -22.5537zM209.09 60.0596
l14.4902 -86.7998c0.286133 -1.7207 0.419922 -3.44531 0.419922 -5.24707c0 -17.6611 -14.3389 -32 -32 -32c-3.98828 0 -7.80762 0.731445 -11.3301 2.06738c-26.458 10.082 -50.3867 25.1592 -70.6699 44.1895z" />
    <glyph glyph-name="crutch-primary" unicode="&#xf7f7;" 
d="M382.91 251l45.25 -45.2402l-109.68 -109.68c-12.4912 -12.498 -28.4805 -21.5498 -46.29 -25.6504l-120.25 -27.75l-102 -102c-2.89648 -2.89648 -6.90137 -4.68945 -11.3174 -4.68945s-8.41699 1.79297 -11.3135 4.68945l-22.6191 22.6201
c-2.89746 2.89648 -4.69043 6.90137 -4.69043 11.3174s1.79297 8.41699 4.69043 11.3125l102 102l27.7393 120.261c4.11719 17.8076 13.1729 33.7939 25.6699 46.29l109.67 109.67l45.2305 -45.25l-55.0801 -55.1006l67.8896 -67.9199zM273.24 141.34l9.30957 9.31055
l-67.8896 67.8896l-9.31055 -9.30957c-4.16113 -4.17773 -7.17969 -9.51172 -8.55957 -15.4502l-18.2998 -79.2998l79.2998 18.3193c5.94238 1.36328 11.2783 4.37695 15.4502 8.54004z" />
    <glyph glyph-name="crutches-primary" unicode="&#xf7f8;" horiz-adv-x="640" 
d="M510.84 251l45.25 -45.2598l-109.68 -109.681c-12.4902 -12.4971 -28.4795 -21.5488 -46.29 -25.6494l-120.25 -27.75l-102 -102c-2.89648 -2.89746 -6.90137 -4.69043 -11.3174 -4.69043s-8.41602 1.79297 -11.3125 4.69043l-22.6201 22.6201
c-2.89746 2.89648 -4.68945 6.90137 -4.68945 11.3174s1.79199 8.41602 4.68945 11.3125l102 102l27.71 120.26c4.12012 17.8057 13.1758 33.792 25.6699 46.29l109.7 109.67l45.25 -45.2598l-55.1006 -55.1006l67.8906 -67.8896zM401.17 141.32l9.31055 9.30957
l-67.8906 67.8896l-9.30957 -9.30957c-4.1582 -4.17969 -7.17578 -9.5127 -8.56055 -15.4502l-18.2998 -79.2998l79.2998 18.3203c5.94336 1.35938 11.2812 4.37402 15.4502 8.54004z" />
    <glyph glyph-name="debug-primary" unicode="&#xf7f9;" 
d="M256 440c137 0 248 -111 248 -248s-111 -248 -248 -248s-248 111 -248 248s111 248 248 248zM256 8c0.0234375 0 0.217773 0.100586 0.241211 0.100586c39.1211 0 75.3896 12.3125 105.139 33.2695l-256 256c-20.9629 -29.749 -33.3799 -66.1924 -33.3799 -105.318
v-0.0517578c0 -101.46 82.54 -184 184 -184zM406.62 86.6299c20.9629 29.749 33.3799 66.1924 33.3799 105.318v0.0517578c0 101.46 -82.54 184 -184 184c-0.0253906 0 -0.22168 -0.100586 -0.24707 -0.100586c-39.1201 0 -75.3857 -12.3125 -105.133 -33.2695z" />
    <glyph glyph-name="disease-primary" unicode="&#xf7fa;" 
d="M304 223.95c-8.83105 0 -16 7.16895 -16 16c0 8.83008 7.16895 16 16 16s16 -7.16992 16 -16c0 -8.83105 -7.16895 -16 -16 -16zM288 159.95c17.6611 0 32 -14.3389 32 -32s-14.3389 -32 -32 -32s-32 14.3389 -32 32s14.3389 32 32 32z" />
    <glyph glyph-name="egg-primary" unicode="&#xf7fb;" horiz-adv-x="384" 
d="M192 448c106 0 192 -214 192 -320s-86 -192 -192 -192s-192 86 -192 192s86 320 192 320zM192 16c61.7842 0.0664062 111.934 50.2158 112 112c0 18.3203 -4.25977 44.4004 -11.6904 71.5596c-8.33594 30.4756 -19.8721 60.3135 -33.8398 88
c-13.9795 27.4502 -29.29 49.8701 -44.29 64.8701l-0.359375 0.360352c-5.60352 5.55176 -13.3223 8.9834 -21.8252 8.9834c-8.50391 0 -16.2119 -3.43164 -21.8154 -8.9834l-0.359375 -0.360352c-15 -14.9893 -30.29 -37.4199 -44.29 -64.8701
c-13.9678 -27.6865 -25.5039 -57.5244 -33.8398 -88c-7.43066 -27.1592 -11.6904 -53.2393 -11.6904 -71.5596c0.0664062 -61.7842 50.2158 -111.934 112 -112z" />
    <glyph glyph-name="egg-fried-primary" unicode="&#xf7fc;" 
d="M224 320c61.7764 -0.0830078 111.917 -50.2236 112 -112c0 -61.8145 -50.1855 -112 -112 -112s-112 50.1855 -112 112s50.1855 112 112 112zM216 256.22v-0.0800781c8.83105 0 16 7.16992 16 16c0 8.83105 -7.16895 16 -16 16
c-39.6982 -0.0273438 -71.9287 -32.2324 -72 -71.9199c0 -8.83008 7.16895 -16 16 -16s16 7.16992 16 16c0 22.0771 17.9238 40 40 40z" />
    <glyph glyph-name="fish-cooked-primary" unicode="&#xf7fe;" horiz-adv-x="640" 
d="M453.63 255l-148.67 -148.62c-1.44824 -1.44727 -3.44922 -2.3418 -5.65625 -2.3418s-4.20605 0.894531 -5.65332 2.3418l-11.3105 11.3105c-1.44727 1.44727 -2.3418 3.44922 -2.3418 5.65527c0 2.20703 0.894531 4.20605 2.3418 5.6543l148.65 148.67
c1.44727 1.44727 3.44922 2.34277 5.65625 2.34277c2.20605 0 4.20605 -0.895508 5.65332 -2.34277l11.3301 -11.3604c1.44727 -1.44727 2.34277 -3.44922 2.34277 -5.65527c0 -2.20703 -0.895508 -4.20605 -2.34277 -5.6543zM341.63 271l-84.6699 -84.6201
c-1.44824 -1.44727 -3.44922 -2.3418 -5.65625 -2.3418s-4.20605 0.894531 -5.65332 2.3418l-11.3105 11.3105c-1.44727 1.44727 -2.3418 3.44922 -2.3418 5.65527c0 2.20703 0.894531 4.20605 2.3418 5.6543l84.6504 84.6699
c1.44727 1.44727 3.44922 2.34277 5.65625 2.34277c2.20605 0 4.20605 -0.895508 5.65332 -2.34277l11.3301 -11.3604c1.44727 -1.44727 2.34277 -3.44922 2.34277 -5.65527c0 -2.20703 -0.895508 -4.20605 -2.34277 -5.6543zM501.63 186.31
c1.46777 -1.4502 2.36719 -3.42578 2.36719 -5.65039c0 -2.20996 -0.897461 -4.21094 -2.34668 -5.65918l-84.6602 -84.6201c-1.44824 -1.44727 -3.44922 -2.3418 -5.65625 -2.3418s-4.20605 0.894531 -5.6543 2.3418l-11.3096 11.3105
c-1.44727 1.44727 -2.34277 3.44922 -2.34277 5.65527c0 2.20703 0.895508 4.20605 2.34277 5.6543l84.6201 84.6699c1.44727 1.44727 3.44922 2.34277 5.65625 2.34277c2.20605 0 4.20605 -0.895508 5.65332 -2.34277z" />
    <glyph glyph-name="flower-daffodil-primary" unicode="&#xf800;" 
d="M368 304c19.4648 -14.5986 32.0381 -37.8867 32.0381 -64.0674c0 -44.1533 -35.8467 -80 -80 -80c-26.1797 0 -49.4395 12.6025 -64.0381 32.0674c-14.5986 -19.4648 -37.8867 -32.0381 -64.0674 -32.0381c-44.1533 0 -80 35.8467 -80 80
c0 26.1797 12.6025 49.4395 32.0674 64.0381c-19.4648 14.5986 -32.0381 37.8867 -32.0381 64.0674c0 44.1533 35.8467 80 80 80c26.1797 0 49.4395 -12.6025 64.0381 -32.0674c14.5986 19.4648 37.8867 32.0381 64.0674 32.0381c44.1533 0 80 -35.8467 80 -80
c0 -26.1797 -12.6025 -49.4395 -32.0674 -64.0381zM256 256c26.4922 0 48 21.5078 48 48s-21.5078 48 -48 48s-48 -21.5078 -48 -48s21.5078 -48 48 -48z" />
    <glyph glyph-name="flower-tulip-primary" unicode="&#xf801;" 
d="M224 192c-70.6455 0 -128 57.3545 -128 128v96l80 -48l81.1504 80l78.8496 -80l80 48v-96c0 -70.6455 -57.3545 -128 -128 -128h-64z" />
    <glyph glyph-name="folder-tree-primary" unicode="&#xf802;" horiz-adv-x="576" 
d="M544 128c17.6611 0 32 -14.3389 32 -32v-128c0 -17.6611 -14.3389 -32 -32 -32h-224c-17.6611 0 -32 14.3389 -32 32v160c0 17.6611 14.3389 32 32 32h80l32 -32h112zM544 416c17.6611 0 32 -14.3389 32 -32v-128c0 -17.6611 -14.3389 -32 -32 -32h-224
c-17.6611 0 -32 14.3389 -32 32v160c0 17.6611 14.3389 32 32 32h80l32 -32h112z" />
    <glyph glyph-name="glass-primary" unicode="&#xf804;" horiz-adv-x="384" 
d="M317.63 384h-251.26l27.4297 -384h196.4zM352 448c0.660156 0 1.33008 -0.0595703 2 -0.0595703c16.7197 -1.0459 30.0039 -14.9297 30.0039 -31.9111c0 -0.681641 -0.0214844 -1.3584 -0.0634766 -2.0293l-32 -448c-1.04785 -16.7188 -14.96 -30 -31.9404 -30h-256
c-16.9805 0 -30.8926 13.2812 -31.9404 30l-32 448c-0.0595703 0.669922 -0.0595703 1.33008 -0.0595703 2c0 17.6611 14.3389 32 32 32h320z" />
    <glyph glyph-name="hamburger-primary" unicode="&#xf805;" 
d="M512 144c0 -26.4922 -21.5078 -48 -48 -48h-416c-26.4922 0 -48 21.5078 -48 48s21.5078 48 48 48h416c26.4922 0 48 -21.5078 48 -48z" />
    <glyph glyph-name="hard-hat-primary" unicode="&#xf807;" 
d="M320 368v-112l40.8096 81.6201c69.9102 -28.7002 119.19 -97.3701 119.19 -177.62v-64h-448v64c0 80.25 49.2803 148.92 119.19 177.62l40.8096 -81.6201v112c0 8.83105 7.16895 16 16 16h96c8.83105 0 16 -7.16895 16 -16z" />
    <glyph glyph-name="head-side-brain-primary" unicode="&#xf808;" 
d="M66.6104 287.71c6.47266 18.7881 24.3164 32.3018 45.291 32.3018c0.0380859 0 0.0605469 -0.0117188 0.0986328 -0.0117188c0 26.4922 21.5078 48 48 48c8.54688 -0.0478516 16.6182 -2.3916 23.5303 -6.40039c8.44629 13.4795 23.4336 22.4492 40.5 22.4492
c17.0654 0 31.9932 -8.96973 40.4395 -22.4492c6.97949 4.04883 15.084 6.36816 23.7256 6.36816c20.7705 0 38.4756 -13.3535 44.8643 -31.9678h2.94043c26.4922 0 48 -21.5078 48 -48s-21.5078 -48 -48 -48h-50.9404c1.8418 -4.98535 2.88672 -10.3906 2.94043 -16
c0 -26.4922 -21.5078 -48 -48 -48c-5.60938 0.0537109 -11.0146 1.09863 -16 2.94043v-50.9404h-64v50.9404c-4.98535 -1.8418 -10.3906 -2.88672 -16 -2.94043c-26.4922 0 -48 21.5078 -48 48c0 1 0.230469 1.88965 0.290039 2.84961
c-18.7871 6.4707 -32.3008 24.3115 -32.3008 45.2842c0 5.45312 0.938477 10.6914 2.62109 15.5762z" />
    <glyph glyph-name="head-side-medical-primary" unicode="&#xf809;" 
d="M320 232c0 -4.41504 -3.58496 -8 -8 -8h-56v-56c0 -4.41504 -3.58496 -8 -8 -8h-48c-4.41504 0 -8 3.58496 -8 8v56h-56c-4.41504 0 -8 3.58496 -8 8v48c0 4.41504 3.58496 8 8 8h56v56c0 4.41504 3.58496 8 8 8h48c4.41504 0 8 -3.58496 8 -8v-56h56
c4.41504 0 8 -3.58496 8 -8v-48z" />
    <glyph glyph-name="home-alt-primary" unicode="&#xf80a;" horiz-adv-x="576" 
d="M530.92 147.06l-235.229 193.74c-2.0918 1.68555 -4.75 2.69531 -7.6416 2.69531c-2.89258 0 -5.56738 -1.00977 -7.65918 -2.69531l-235.22 -193.74c-2.07227 -1.70508 -4.72656 -2.72949 -7.61719 -2.72949c-3.73145 0 -7.07129 1.69531 -9.27246 4.37012l-25.5 31
c-1.71289 2.07422 -2.74219 4.73438 -2.74219 7.63184c0 3.72266 1.6875 7.05664 4.35156 9.25781l253.101 208.47c8.29004 6.82227 18.9043 10.9209 30.4688 10.9209s22.2402 -4.09863 30.5312 -10.9209l253.13 -208.47
c2.68164 -2.20117 4.39355 -5.54199 4.39355 -9.27832c0 -2.88672 -1.0332 -5.54004 -2.7334 -7.61133l-25.5 -31c-2.20215 -2.66602 -5.53223 -4.36719 -9.25684 -4.36719c-2.88281 0 -5.5332 1.03027 -7.60352 2.72656z" />
    <glyph glyph-name="home-lg-primary" unicode="&#xf80b;" horiz-adv-x="576" 
d="M527.92 164.12l-229.32 202.27c-2.82031 2.48926 -6.52344 3.99902 -10.5771 3.99902s-7.77148 -1.50977 -10.5928 -3.99902l-229.319 -202.279c-2.83398 -2.54492 -6.5791 -4.09277 -10.6836 -4.09277c-4.72363 0 -8.97656 2.04199 -11.9072 5.30273l-21.4199 23.79
c-2.54395 2.83301 -4.09277 6.57812 -4.09277 10.6826c0 4.72363 2.04297 8.97754 5.30273 11.9072l256 226c7.06934 6.39062 16.4385 10.2852 26.709 10.2852c10.2715 0 19.6719 -3.89453 26.7412 -10.2852l101.24 -89.3701v51.6699c0 8.83105 7.16895 16 16 16h64
c8.83105 0 16 -7.16895 16 -16v-136.43l58.6904 -51.8301c3.2627 -2.93066 5.31641 -7.18066 5.31641 -11.9072c0 -4.10254 -1.55566 -7.85059 -4.09668 -10.6826l-21.4004 -23.8203c-2.92969 -3.25977 -7.17773 -5.31152 -11.9023 -5.31152
c-4.10352 0 -7.85352 1.55762 -10.6875 4.10156z" />
    <glyph glyph-name="home-lg-alt-primary" unicode="&#xf80c;" horiz-adv-x="576" 
d="M527.92 164.09l-229.32 202.271c-2.82031 2.48828 -6.52344 3.99902 -10.5771 3.99902s-7.77148 -1.51074 -10.5928 -3.99902l-229.319 -202.28c-2.83398 -2.54395 -6.5791 -4.09277 -10.6836 -4.09277c-4.72363 0 -8.97656 2.04297 -11.9072 5.30273l-21.4199 23.8203
c-2.54395 2.83301 -4.09277 6.57812 -4.09277 10.6826c0 4.72363 2.04297 8.97754 5.30273 11.9072l256 226c7.06934 6.39062 16.4385 10.2852 26.709 10.2852c10.2715 0 19.6719 -3.89453 26.7412 -10.2852l255.94 -226c3.2627 -2.93066 5.31738 -7.18066 5.31738 -11.9072
c0 -4.10254 -1.55566 -7.84961 -4.09766 -10.6826l-21.4004 -23.8203c-2.92969 -3.25977 -7.17773 -5.31152 -11.9014 -5.31152c-4.10938 0 -7.86328 1.56152 -10.6982 4.11133z" />
    <glyph glyph-name="hospitals-primary" unicode="&#xf80e;" horiz-adv-x="640" 
d="M256 352c17.6611 0 32 -14.3389 32 -32v-352c0 -17.6611 -14.3389 -32 -32 -32h-224c-17.6611 0 -32 14.3389 -32 32v352c0 17.6611 14.3389 32 32 32v64c0 17.6611 14.3389 32 32 32h160c17.6611 0 32 -14.3389 32 -32v-64zM128 44v40c0 6.62305 -5.37695 12 -12 12h-40
c-6.62305 0 -12 -5.37695 -12 -12v-40c0 -6.62305 5.37695 -12 12 -12h40c6.62305 0 12 5.37695 12 12zM128 172v40c0 6.62305 -5.37695 12 -12 12h-40c-6.62305 0 -12 -5.37695 -12 -12v-40c0 -6.62305 5.37695 -12 12 -12h40c6.62305 0 12 5.37695 12 12zM130.67 288
h26.6602c4.41504 0 8 3.58496 8 8v34.6699h34.6699c4.41504 0 8 3.58496 8 8v26.6602c0 4.41504 -3.58496 8 -8 8h-34.6699v34.6699c0 4.41504 -3.58496 8 -8 8h-26.6602c-4.41504 0 -8 -3.58496 -8 -8v-34.6699h-34.6699c-4.41504 0 -8 -3.58496 -8 -8v-26.6602
c0 -4.41504 3.58496 -8 8 -8h34.6699v-34.6699c0 -4.41504 3.58496 -8 8 -8zM224 44v40c0 6.62305 -5.37695 12 -12 12h-40c-6.62305 0 -12 -5.37695 -12 -12v-40c0 -6.62305 5.37695 -12 12 -12h40c6.62305 0 12 5.37695 12 12zM224 172v40c0 6.62305 -5.37695 12 -12 12
h-40c-6.62305 0 -12 -5.37695 -12 -12v-40c0 -6.62305 5.37695 -12 12 -12h40c6.62305 0 12 5.37695 12 12zM552 373.33c4.41504 0 8 -3.58496 8 -8v-26.6602c0 -4.41504 -3.58496 -8 -8 -8h-34.6699v-34.6699c0 -4.41504 -3.58496 -8 -8 -8h-26.6602
c-4.41504 0 -8 3.58496 -8 8v34.6699h-34.6699c-4.41504 0 -8 3.58496 -8 8v26.6602c0 4.41504 3.58496 8 8 8h34.6699v34.6699c0 4.41504 3.58496 8 8 8h26.6602c4.41504 0 8 -3.58496 8 -8v-34.6699h34.6699z" />
    <glyph glyph-name="hotdog-primary" unicode="&#xf80f;" 
d="M310.64 428.11l11.54 -11.5508l-290.739 -290.739l-11.5508 11.5498c-24.9893 24.9902 -26.6592 63.8398 -3.71973 86.7803l207.68 207.68c22.9404 22.9395 61.79 21.2803 86.79 -3.71973zM492.11 246.64c24.9893 -25 26.6592 -63.8496 3.71973 -86.79l-207.68 -207.68
c-22.9404 -22.9395 -61.79 -21.2803 -86.79 3.71973l-11.54 11.5508l290.739 290.739zM224 160c-12.4199 -12.4004 -14 -21.75 -16.2305 -34.7002c-2.46973 -14.3994 -5.53906 -32.3301 -25.1396 -51.9199c-19.5996 -19.5898 -37.5303 -22.6797 -51.9297 -25.1494
c-12.9404 -2.23047 -22.2998 -3.83008 -34.7002 -16.2305c-2.89648 -2.89648 -6.90137 -4.68457 -11.3174 -4.68457c-8.83105 0 -16.002 7.16992 -16.002 16.002c0 4.41602 1.79297 8.41602 4.68945 11.3125c19.5996 19.5898 37.5195 22.6699 51.9199 25.1396
c13 2.23047 22.3203 3.82031 34.71 16.2305s14 21.75 16.2002 34.7002c2.47949 14.3994 5.58008 32.3398 25.1797 51.9297c19.6006 19.5898 37.5205 22.6699 51.9199 25.1396c13 2.23047 22.3301 3.84082 34.7002 16.2305s14 21.75 16.2305 34.7002
c2.46973 14.3994 5.53906 32.3301 25.1396 51.9199c19.5996 19.5898 37.5195 22.6797 51.9199 25.1494c12.9502 2.23047 22.2998 3.82031 34.71 16.2305c2.89648 2.89648 6.90137 4.68457 11.3174 4.68457c8.83105 0 16.002 -7.16992 16.002 -16.002
c0 -4.41602 -1.79297 -8.41602 -4.68945 -11.3125c-19.5996 -19.5898 -37.5195 -22.6699 -51.9297 -25.1396c-12.9404 -2.23047 -22.2998 -3.83008 -34.7002 -16.2305s-14 -21.71 -16.2305 -34.71c-2.47949 -14.4004 -5.5498 -32.3301 -25.1494 -51.9199
c-19.6006 -19.5898 -37.5205 -22.6699 -51.9199 -25.1504c-12.9502 -2.21973 -22.2998 -3.81934 -34.7002 -16.2197z" />
    <glyph glyph-name="island-tropical-primary" unicode="&#xf811;" horiz-adv-x="448" 
d="M241.2 96c72.2168 0 132.106 -53.4199 142.439 -122.78c2.89062 -19.5195 -12.0293 -37.2197 -31.7598 -37.2197h-319.76c-19.7305 0 -34.6504 17.7002 -31.7598 37.2197c10.333 69.3604 70.2227 122.78 142.439 122.78h98.4004zM447.82 334.36
c0.118164 -0.68457 0.179688 -1.37402 0.179688 -2.0918v-0.0888672c-0.107422 -6.73926 -5.60938 -12.1816 -12.374 -12.1816c-0.0761719 0 -0.151367 0.000976562 -0.225586 0.00195312h-35.4004l-16 32l-16 -32h-129.11l-92.7598 -92.5303
c-5.36035 -5.35938 -14.1396 -4.25 -18.5 1.9502c-25.0801 35.7002 -19.6699 87.5801 14.54 122.58h-30.1699l-16 32l-16 -32h-35.4004c-0.0664062 -0.000976562 -0.118164 -0.00195312 -0.185547 -0.00195312c-0.678711 0 -1.34473 0.0556641 -1.99414 0.162109
c-5.88672 0.949219 -10.4014 6.04785 -10.4014 12.2002c0 0.680664 0.0556641 1.34863 0.161133 2c8.12988 46.21 54.8203 81.6396 111.29 81.6396c50.25 0 92.3105 -28.29 106.761 -67.0801c20.6396 21.2598 51.4199 35.0801 86.2998 35.0801
c56.4697 0 103.16 -35.4297 111.29 -81.6396z" />
    <glyph glyph-name="laptop-medical-primary" unicode="&#xf812;" horiz-adv-x="640" 
d="M624 32c8.83105 0 16 -7.16895 16 -16v-16c-0.104492 -35.2744 -28.7256 -63.8955 -64 -64h-512c-35.2744 0.104492 -63.8955 28.7256 -64 64v16c0 8.83105 7.16895 16 16 16h239.23c-0.230469 -14.5303 14.0791 -32 32.7695 -32h60.7998
c18.0303 0 32 12.1904 32.7402 32h242.46zM512 384v-256h-384v256h384zM416 232v48c0 4.41504 -3.58496 8 -8 8h-56v56c0 4.41504 -3.58496 8 -8 8h-48c-4.41504 0 -8 -3.58496 -8 -8v-56h-56c-4.41504 0 -8 -3.58496 -8 -8v-48c0 -4.41504 3.58496 -8 8 -8h56v-56
c0 -4.41504 3.58496 -8 8 -8h48c4.41504 0 8 3.58496 8 8v56h56c4.41504 0 8 3.58496 8 8z" />
    <glyph glyph-name="meat-primary" unicode="&#xf814;" 
d="M444 379.48c66.6699 -66.6709 86.7197 -154.9 49.2998 -204.33c-1.80566 -3.32031 -4.03418 -6.32422 -6.66016 -9c-38.7295 -38.6904 -113.909 -102.15 -183.8 -102.15h-102.84c-39.7383 0 -72 32.2617 -72 72v2.11035l0.0996094 0.0996094v100.37
c0 69.8203 63.54 144.92 102.261 183.6c2.21387 2.21289 4.63672 4.14648 7.2998 5.82031c16.7002 13.21 37.8301 20 61.4697 20c45.9404 0 100.28 -24.0498 144.87 -68.5195zM452.73 200.09h-0.0703125c24.2998 24.2598 11.1797 91.6104 -42.7002 145.45
c-33.6396 33.5898 -76.0996 54.46 -110.82 54.46c-10.4893 0 -25.0498 -2.0498 -34.7295 -11.7598c-10.9297 -10.9199 -14.4805 -30.7803 -9.74023 -54.4805c6.13965 -30.6797 25.2598 -63.8398 52.4502 -91c33.6299 -33.5996 76.0996 -54.4697 110.82 -54.4697
c10.4893 0 25.0293 2.0498 34.79 11.7998z" />
    <glyph glyph-name="pager-primary" unicode="&#xf815;" 
d="M448 384c35.3223 0 64 -28.6777 64 -64v-256c0 -35.3223 -28.6777 -64 -64 -64h-384c-35.3223 0 -64 28.6777 -64 64v256c0 35.3223 28.6777 64 64 64h384zM160 80v48h-80c-8.83105 0 -16 -7.16895 -16 -16v-16c0 -8.83105 7.16895 -16 16 -16h80zM288 96v16
c0 8.83105 -7.16895 16 -16 16h-80v-48h80c8.83105 0 16 7.16895 16 16zM448 224v64c0 17.6611 -14.3389 32 -32 32h-320c-17.6611 0 -32 -14.3389 -32 -32v-64c0 -17.6611 14.3389 -32 32 -32h320c17.6611 0 32 14.3389 32 32z" />
    <glyph glyph-name="pepper-hot-primary" unicode="&#xf816;" 
d="M362.67 295.14l-74.6699 34.29c22.3398 14 48.3398 22.5898 76.3398 22.5898c20.2783 -0.0224609 39.6855 -4.34766 57.1602 -12c18.4502 37.2207 8.25977 62 1.40039 72.3203c-0.894531 1.29883 -1.41797 2.87305 -1.41797 4.56738
c0 2.20117 0.876953 4.20605 2.30762 5.66309l22.9004 23c0.212891 0.223633 0.4375 0.427734 0.679688 0.620117c1.37402 1.11035 3.12207 1.77539 5.02441 1.77539c2.5127 0 4.75879 -1.15234 6.22559 -2.96582c18.5596 -23.4805 35.2998 -71.9102 3.13965 -131.75
c30.8984 -28.1729 50.2998 -68.7451 50.2998 -113.812c0 -0.0410156 -0.0595703 -0.0654297 -0.0595703 -0.107422c0 -13.6797 -2.2998 -26.6904 -5.55957 -39.3105l-54.6807 56.8809h-89.0898v78.2393z" />
    <glyph glyph-name="pizza-primary" unicode="&#xf817;" horiz-adv-x="576" 
d="M256.25 56c-13.2461 0 -24 10.7539 -24 24s10.7539 24 24 24s24 -10.7539 24 -24s-10.7539 -24 -24 -24zM208.25 312c13.2461 0 24 -10.7539 24 -24s-10.7539 -24 -24 -24s-24 10.7539 -24 24s10.7539 24 24 24zM403.25 44.9199l22.0195 -22.0703
c6.46094 -6.45996 6.44043 -17.3896 -0.419922 -23.3896c-112.909 -99.2197 -292.229 -82.0898 -382.229 51.3701c-56.8301 84.29 -56.8301 198.04 0 282.34c89.9697 133.46 269.32 150.59 382.21 51.3701c6.86035 -6.03027 6.87988 -16.9297 0.419922 -23.3896
l-22 -22.0703c-81.8604 81.8896 -215 81.2197 -296 -2.11035c-77 -79.2002 -77 -210.75 0 -289.939c81 -83.3301 214.13 -84.0303 296 -2.11035zM523.25 347.87c33.0244 -43.1895 52.6416 -97.5684 52.6416 -156.083c0 -58.5088 -19.623 -112.471 -52.6416 -155.657
c-5.79004 -7.55957 -17.2197 -7.91992 -23.9502 -1.18945l-21.4199 21.4395c66.7002 77.8398 66.7002 193.4 0 271.24l21.4199 21.4395c6.73047 6.73047 18.1602 6.36035 23.9502 -1.18945zM160.25 216c13.2461 0 24 -10.7539 24 -24s-10.7539 -24 -24 -24
s-24 10.7539 -24 24s10.7539 24 24 24zM424.1 208c13.2461 0 24 -10.7539 24 -24s-10.7539 -24 -24 -24c-13.2451 0 -24 10.7539 -24 24s10.7549 24 24 24z" />
    <glyph glyph-name="pizza-slice-primary" unicode="&#xf818;" 
d="M128 96c17.6611 0 32 -14.3389 32 -32s-14.3389 -32 -32 -32s-32 14.3389 -32 32s14.3389 32 32 32zM176 248c17.6611 0 32 -14.3389 32 -32s-14.3389 -32 -32 -32s-32 14.3389 -32 32s14.3389 32 32 32zM511.76 102.14
c1.87012 -16.2197 -7.89941 -31.54 -23.6201 -35.8994l-56.9395 -15.7803c-7.94043 186.39 -134.86 311.54 -322.48 317l14.8105 56.2705c4.12988 15.6992 19.1699 25.6396 35.3301 24.1191c181.909 -17.1699 332.02 -164.93 352.899 -345.71zM280 144
c17.6611 0 32 -14.3389 32 -32s-14.3389 -32 -32 -32s-32 14.3389 -32 32s14.3389 32 32 32z" />
    <glyph glyph-name="rings-wedding-primary" unicode="&#xf81b;" 
d="M199 1.5c-7.58203 -0.999023 -15.3145 -1.51367 -23.167 -1.51367c-97.1377 0 -176 78.8623 -176 176c0 97.1367 78.8623 176 176 176c97.1367 0 176 -78.8633 176 -176c0 -52.2832 -22.5869 -99.2393 -58.833 -131.486
c-4.93555 3.16211 -9.43262 6.7832 -13.5596 10.9102c-11.5352 11.4805 -19.5537 26.5654 -22.3203 43.3301c19.1396 20.0977 30.8945 47.291 30.8945 77.207c0 61.8145 -50.1855 112 -112 112s-112 -50.1855 -112 -112c0 -58.583 45.1836 -106.695 102.516 -111.567
c6.51074 -23.2051 17.7168 -44.6289 32.4697 -62.8799z" />
    <glyph glyph-name="salad-primary" unicode="&#xf81e;" 
d="M384 -20.5195v-11.4805c0 -17.6611 -14.3389 -32 -32 -32h-192c-17.6611 0 -32 14.3389 -32 32v11.2803c-69.7305 24.46 -121.31 87.4795 -127.94 163.85c-0.799805 9.12012 6.94043 16.8701 16.1104 16.8701h479c9.15039 0 16.8896 -7.71973 16.0996 -16.8398
c-6.60938 -76.1602 -57.8691 -139.061 -127.27 -163.68z" />
    <glyph glyph-name="sandwich-primary" unicode="&#xf81f;" 
d="M480 96c17.6611 0 32 -14.3389 32 -32v-64c0 -17.6611 -14.3389 -32 -32 -32h-448c-17.6611 0 -32 14.3389 -32 32v64c0 17.6611 14.3389 32 32 32h192l96 -48l96 48h64zM480 416c17.6611 0 32 -14.3389 32 -32v-96c0 -17.6611 -14.3389 -32 -32 -32h-448
c-17.6611 0 -32 14.3389 -32 32v96c0 17.6611 14.3389 32 32 32h448z" />
    <glyph glyph-name="sausage-primary" unicode="&#xf820;" 
d="M24.1797 79l45.2607 -15.04c-3.50879 -9.99023 -5.41699 -20.7852 -5.41699 -31.9678s1.9082 -21.9219 5.41699 -31.9121l-45.2607 -15.0801c-1.82227 -0.606445 -3.77441 -0.9375 -5.7998 -0.9375c-10.123 0 -18.3467 8.20215 -18.3799 18.3174v59.2402
c0.0166016 2.02344 0.370117 3.97559 1 5.79004c2.44043 7.27637 9.31641 12.5166 17.4092 12.5166c2.01562 0 3.95605 -0.325195 5.77051 -0.926758zM451.41 447c7.25586 -2.45215 12.4775 -9.31738 12.4775 -17.3965c0 -2.0166 -0.326172 -3.95801 -0.927734 -5.77344
l-15 -45.2705c-9.99023 3.50879 -20.7852 5.41699 -31.9678 5.41699s-21.9219 -1.9082 -31.9121 -5.41699l-15.0801 45.2607c-0.604492 1.82031 -0.94043 3.76953 -0.950195 5.79004c0 0.00976562 0.000976562 0.0195312 0.000976562 0.0292969
c0 10.123 8.20996 18.3438 18.3291 18.3604h59.2402c2.02344 -0.0166016 3.97559 -0.370117 5.79004 -1zM384 304c8.83105 0 16 -7.16895 16 -16c0 -132.34 -107.66 -240 -240 -240c-8.83105 0 -16 7.16895 -16 16s7.16895 16 16 16c114.69 0 208 93.3096 208 208
c0 8.83105 7.16895 16 16 16z" />
    <glyph glyph-name="shish-kebab-primary" unicode="&#xf821;" 
d="M126.55 192.41l129.851 -129.83c5.53809 -5.54004 8.96484 -13.1992 8.96484 -21.6445c0 -8.44434 -3.42676 -16.0947 -8.96484 -21.6357l-42.3008 -42.2998c-5.54004 -5.53809 -13.1992 -8.96484 -21.6436 -8.96484c-8.44531 0 -16.0957 3.42676 -21.6357 8.96484
l-129.82 129.84c-5.54004 5.53809 -8.96875 13.1953 -8.96875 21.6396c0 8.44336 3.42871 16.0928 8.96875 21.6309l42.2695 42.2998c5.54102 5.53809 13.2002 8.96484 21.6445 8.96484c8.44531 0 16.0957 -3.42676 21.6357 -8.96484zM364.6 170.76
c5.53223 -5.53906 8.95605 -13.1943 8.95605 -21.6338c0 -8.4502 -3.43164 -16.1045 -8.97559 -21.6455l-42.2998 -42.3008c-5.54102 -5.53809 -13.2002 -8.96484 -21.6445 -8.96484s-16.0957 3.42676 -21.6357 8.96484l-129.82 129.86
c-5.53516 5.54199 -8.96094 13.2002 -8.96094 21.6445c0 8.44336 3.42578 16.0938 8.96094 21.6357l42.3008 42.2998c5.54199 5.53809 13.2021 8.96582 21.6484 8.96582c8.44727 0 16.0986 -3.42773 21.6406 -8.96582z" />
    <glyph glyph-name="sickle-primary" unicode="&#xf822;" 
d="M511.82 292.61c1.64941 -8.41016 -9.06055 -13.3799 -14.1406 -6.48047c-12.6455 17.0596 -28.6406 31.0908 -47.3301 41.4199c-44.4697 24.9004 -101 23.2402 -144 -4c-70.7598 -44.7295 -85.4092 -131.8 -46.8799 -196l-35.4697 -35.4199l-31.71 30.0898
c-45.7002 45.6904 -70.1504 111.2 -56.4102 174.34c17.8701 82.1309 88.1201 151.44 184.12 151.44c128 0 181.17 -100.72 191.82 -155.39z" />
    <glyph glyph-name="soup-primary" unicode="&#xf823;" 
d="M32 256h448c17.6611 0 32 -14.3389 32 -32c0 -94.7002 -51.5596 -177.16 -128 -221.45v-34.5498c0 -17.6611 -14.3389 -32 -32 -32h-192c-17.6611 0 -32 14.3389 -32 32v34.5498c-76.4404 44.29 -128 126.75 -128 221.45c0 17.6611 14.3389 32 32 32z" />
    <glyph glyph-name="stretcher-primary" unicode="&#xf825;" horiz-adv-x="640" 
d="M640 288v-32c0 -17.6611 -14.3389 -32 -32 -32h-430.38c-19.0225 0 -36.1133 8.28809 -47.8398 21.4805l-121.7 128c-5.02148 5.65137 -8.07324 13.0918 -8.07324 21.2393c0 9.51074 4.1377 18.0674 10.7334 23.9307l23.9199 21.2695
c5.65234 5.02441 13.0947 8.07812 21.2461 8.07812c9.51172 0 18.0703 -4.13965 23.9336 -10.7383l112.16 -117.26h416c17.6611 0 32 -14.3389 32 -32z" />
    <glyph glyph-name="taco-primary" unicode="&#xf826;" 
d="M112 64c8.83105 0 16 -7.16895 16 -16s-7.16895 -16 -16 -16s-16 7.16895 -16 16s7.16895 16 16 16zM176 128c8.83105 0 16 -7.16895 16 -16s-7.16895 -16 -16 -16s-16 7.16895 -16 16s7.16895 16 16 16zM508.91 223.71c6.83984 -18.0596 0.979492 -37.71 -4.16016 -55
c-0.0400391 -0.0791016 -0.0683594 -0.167969 -0.0800781 -0.259766c-2.5 -8.98535 -4.0625 -18.4277 -4.53027 -28.0898c-52.1396 89.1201 -143.05 147.64 -244.14 147.64s-192 -58.5098 -244.12 -147.62c-0.477539 9.67578 -2.03906 19.1348 -4.53027 28.1396
c-0.0234375 0.0341797 -0.0371094 0.0761719 -0.0371094 0.121094c0 0.0439453 0.0136719 0.0849609 0.0371094 0.119141c-5.15918 17.2998 -10.9697 36.9199 -4.15918 55c7.14941 19.0703 24.8096 29.3604 40.2695 38.46c9.49023 5.53027 19.3203 11.29 23.71 17.5303
c4.74023 6.71973 7.33008 18.54 9.83008 30c4 18.0801 8.48047 38.5801 23.6797 50.6396c15.6807 12.4502 36 11.0508 54 9.81055c10.79 -0.759766 21.96 -1.5 29.1807 1.09961c6.88965 2.50977 15.0801 10.1406 23 17.5098
c47.7197 44.46 69.3301 27.0205 98.3799 -0.0498047c7.87988 -7.37012 16.0693 -15 23 -17.5098c7.17969 -2.59961 18.3896 -1.86035 29.1797 -1.09961c18 1.18945 38.3105 2.63965 54 -9.81055c15.2002 -12.0596 19.6904 -32.5596 23.6396 -50.6396
c2.5 -11.4902 5.09082 -23.3105 9.83008 -30c4.39062 -6.24023 14.2207 -11.9902 23.71 -17.5303c15.5508 -9.09961 33.1602 -19.4004 40.3105 -38.46z" />
    <glyph glyph-name="tanakh-primary" unicode="&#xf827;" horiz-adv-x="448" 
d="M224 360.62l16.7998 -28.0605h-33.5801zM164.89 308.56l-17.4199 -29.1699l-17.4697 29.1699h34.8896zM318 308.56l-17.4199 -29.1895l-17.4805 29.1895h34.9004zM130 203.44l17.4199 29.1895l17.4805 -29.1895h-34.9004zM352 448c52.9834 0 96 -43.0166 96 -96v-320
c0 -52.9834 -43.0166 -96 -96 -96h-328c-13.2461 0 -24 10.7539 -24 24v16c0 13.2461 10.7539 24 24 24h328c19.2002 0 32 12.7998 32 32s-16 32 -32 32h-328c-13.2461 0 -24 10.7539 -24 24v328c0 17.6611 14.3389 32 32 32h320zM342.59 189.57
c1.66504 2.87988 2.61914 6.26367 2.61914 9.82715c0 3.72363 -1.04199 7.20703 -2.84863 10.1729l-27.79 46.4297l27.6797 46.2695c1.80176 3.00293 2.84961 6.53711 2.84961 10.29c0 11.0352 -8.95605 19.9951 -19.9893 20h-56.3604l-27.7002 46.2803
c-3.42188 5.80371 -9.72363 9.68066 -16.9434 9.68066c-0.0185547 0 -0.0371094 0 -0.0566406 -0.000976562c-0.0117188 0.000976562 -0.00976562 0.0214844 -0.0214844 0.0214844c-7.33105 0 -13.7461 -3.95215 -17.2285 -9.84082l-27.5898 -46.1201h-56.2998
c-0.0078125 0 -0.00292969 0.0214844 -0.0117188 0.0214844c-7.48633 0 -14.0234 -4.09766 -17.4883 -10.1719c-1.66406 -2.87988 -2.61719 -6.26367 -2.61719 -9.82715c0 -3.72363 1.04102 -7.20605 2.84668 -10.1729l27.79 -46.4297l-27.6602 -46.2695
c-1.80078 -3.00293 -2.84961 -6.53711 -2.84961 -10.29c0 -11.0352 8.95605 -19.9951 19.9902 -20h56.3896l27.7002 -46.2803c3.41895 -5.80371 9.71973 -9.68066 16.9375 -9.68066c0.0205078 0 0.0419922 0 0.0625 0.000976562
c7.32422 0.00488281 13.7207 3.93457 17.2002 9.81934l27.5898 46.1201h56.2998c0.0078125 0 0.00292969 -0.0214844 0.0117188 -0.0214844c7.48633 0 14.0234 4.09766 17.4883 10.1719zM224.05 151.37l-16.7998 28.0703h33.5801zM283.14 203.44l17.4404 29.1699
l17.4697 -29.1699h-34.9102zM255.14 308.58l31.4502 -52.5801l-31.4102 -52.5596h-62.2998l-31.4697 52.5596l31.4297 52.5801h62.2998z" />
    <glyph glyph-name="user-hard-hat-primary" unicode="&#xf82c;" horiz-adv-x="448" 
d="M313.6 96c74.1777 0 134.4 -60.2227 134.4 -134.4c0 -14.1289 -11.4707 -25.5996 -25.5996 -25.5996h-396.801c-14.1289 0 -25.5996 11.4707 -25.5996 25.5996c0 74.1777 60.2227 134.4 134.4 134.4h16.6992c22.1426 -10.21 47.085 -15.9053 73.0498 -15.9053
c25.9639 0 50.6084 5.69531 72.751 15.9053h16.6992zM88 272c-4.41504 0 -8 3.58496 -8 8v32c0 4.41504 3.58496 8 8 8h8c0 0.0117188 -0.078125 -0.0283203 -0.078125 -0.0166016c0 46.3828 28.2559 86.2178 68.4785 103.217l27.5996 -55.2002v64
c0 8.83105 7.16895 16 16 16h32c8.83105 0 16 -7.16895 16 -16v-64l27.5996 55.2002c40.2227 -16.999 68.4004 -56.7822 68.4004 -103.165v-0.0351562h8c4.41504 0 8 -3.58496 8 -8v-32c0 -4.41504 -3.58496 -8 -8 -8h-272z" />
    <glyph glyph-name="user-headset-primary" unicode="&#xf82d;" horiz-adv-x="448" 
d="M320 96c70.6455 0 128 -57.3545 128 -128c0 -17.6611 -14.3389 -32 -32 -32h-384c-17.6611 0 -32 14.3389 -32 32c0 70.6455 57.3545 128 128 128h23.0996c22.1426 -10.21 47.085 -15.9053 73.0498 -15.9053c25.9639 0 50.6084 5.69531 72.751 15.9053h23.0996z
M144.35 156.53c-29.25 23.4697 -48.3496 59.0498 -48.3496 99.4697c0 70.6455 57.3545 128 128 128s128 -57.3545 128 -128v-16c-0.0273438 -26.4795 -21.5205 -47.9727 -48 -48h-8.58984c-11.0605 19.1572 -31.7197 31.9941 -55.4102 32h-32
c-35.3047 -0.0380859 -63.9619 -28.6953 -64 -64c0 -1.19043 0.290039 -2.2998 0.349609 -3.46973z" />
    <glyph glyph-name="user-md-chat-primary" unicode="&#xf82e;" horiz-adv-x="640" 
d="M319.8 159.85c71.249 -3.31055 128.176 -62.1934 128.2 -134.25v-41.5996c0 -26.4922 -21.5078 -48 -48 -48h-352c-26.4922 0 -48 21.5078 -48 48v41.5996c0.0244141 66.4951 48.542 121.775 112 132.53v-80.7295c-23.1191 -6.89355 -40.0049 -28.3291 -40.0049 -53.6758
c0 -30.9072 25.0928 -56 56 -56s56 25.0928 56 56c0 25.3467 -16.876 46.7822 -39.9951 53.6758v82.5996h7.09961c22.1348 -10.209 47.0176 -15.9268 72.9746 -15.9268c22.5645 0 44.1328 4.30469 63.9258 12.1367v-70.4102c-28.2002 -7.5 -48 -34.5 -48 -64.5996v-29.2002
c0.0146484 -4.40918 1.80664 -8.40527 4.7002 -11.2998l10.2998 -10.2998c1.44727 -1.44434 3.44727 -2.33789 5.65137 -2.33789s4.20117 0.893555 5.64844 2.33789l11.2998 11.2998c1.44434 1.44727 2.33789 3.44727 2.33789 5.65137s-0.893555 4.20117 -2.33789 5.64844
l-5.69922 5.7002v25.2998c0.0585938 17.6885 14.4072 32.0342 32.1094 32.0342c1.80176 0 3.56934 -0.148438 5.29004 -0.43457c15.7002 -2.59961 26.6006 -17.3994 26.6006 -33.2998v-23.5996l-5.7002 -5.7002c-1.44434 -1.44727 -2.33789 -3.44727 -2.33789 -5.65137
s0.893555 -4.20117 2.33789 -5.64844l11.2998 -11.2998c1.44727 -1.44434 3.44727 -2.33789 5.65137 -2.33789s4.20117 0.893555 5.64844 2.33789l10.2998 10.2998c2.89355 2.89453 4.68555 6.89062 4.7002 11.2998v32c-0.0986328 29.6553 -20.499 54.5703 -48 61.5996
v74.25zM104 24c0 0.0205078 -0.000976562 0.0400391 -0.000976562 0.0605469c0 13.2119 10.7266 23.9395 23.9395 23.9395h0.0615234c13.2461 0 24 -10.7539 24 -24s-10.7539 -24 -24 -24s-24 10.7539 -24 24z" />
    <glyph glyph-name="users-medical-primary" unicode="&#xf830;" horiz-adv-x="640" 
d="M352 96c0 -52.5303 25.7803 -98.8096 65 -128h-241c-26.4922 0 -48 21.5078 -48 48v28.7998c0.0166016 63.5732 51.627 115.184 115.2 115.2h8.2998c20.9004 -10 43.9004 -16 68.5 -16c14.6055 0.0830078 28.7266 2.24902 42.0898 6.16992
c-6.16992 -17 -10.0898 -35.0703 -10.0898 -54.1699zM96 224c-35.3223 0 -64 28.6777 -64 64s28.6777 64 64 64s64 -28.6777 64 -64s-28.6777 -64 -64 -64zM173.1 173.4c-40.2061 -21.9053 -68.9023 -62.1396 -75.1992 -109.4h-65.9004c-17.6611 0 -32 14.3389 -32 32v32
c0.0332031 35.3076 28.6924 63.9668 64 64h64c0.0234375 0 0.0556641 0.0078125 0.0791016 0.0078125c17.5625 0 33.4775 -7.11035 45.0205 -18.6074zM319.88 192c-61.7529 0.0332031 -111.881 50.1787 -111.881 111.94c0 61.7812 50.1582 111.939 111.939 111.939
s111.94 -50.1582 111.94 -111.939c0 -61.7617 -50.126 -111.907 -111.879 -111.94h-0.120117z" />
    <glyph glyph-name="walker-primary" unicode="&#xf831;" horiz-adv-x="448" 
d="M352 90.5303v133.47h-224.19l-64.5293 -274.76c-1.31738 -7.50879 -7.8623 -13.2373 -15.7451 -13.2373c-0.939453 0 -1.86035 0.0810547 -2.75488 0.237305l-31.54 5.47949c-7.50977 1.31641 -13.2383 7.86133 -13.2383 15.7461
c0 0.942383 0.0810547 1.86621 0.238281 2.76465l95.7598 407.77c7.50195 45.3115 46.9053 80.001 94.3291 80.001c0.110352 0 0.220703 -0.000976562 0.331055 -0.000976562h129.34c52.9834 0 96 -43.0166 96 -96v-261.47
c-10.0059 3.52344 -20.8232 5.44043 -32.0283 5.44043s-21.9658 -1.91699 -31.9717 -5.44043zM142.83 288h209.17v64c0 17.6611 -14.3389 32 -32 32h-129.34c-0.0273438 0 -0.0537109 -0.0302734 -0.0810547 -0.0302734c-15.8447 0 -29.0068 -11.5732 -31.4893 -26.7197z
" />
    <glyph glyph-name="webcam-primary" unicode="&#xf832;" horiz-adv-x="448" 
d="M401 9.40039c9.02734 -5.66113 15 -15.6797 15 -27.1104v-0.0302734v-14.2598c0 -17.6611 -14.3389 -32 -32 -32h-320c-17.6611 0 -32 14.3389 -32 32v14.2598c0 0.00976562 -0.0341797 -0.000976562 -0.0341797 0.00976562c0 11.4307 6.00684 21.4697 15.0342 27.1309
l49.2305 30.75c-58.1104 40.46 -96.2305 107.659 -96.2305 183.85c0 123.71 100.29 224 224 224s224 -100.29 224 -224c0 -76.1904 -38.1201 -143.39 -96.1904 -183.85zM224 64c88.3066 0 160 71.6934 160 160s-71.6934 160 -160 160s-160 -71.6934 -160 -160
s71.6934 -160 160 -160z" />
    <glyph glyph-name="webcam-slash-primary" unicode="&#xf833;" horiz-adv-x="640" 
d="M636.64 -32.5498l-19.6396 -25.2705c-2.92871 -3.76172 -7.5 -6.18359 -12.6318 -6.18359c-3.69727 0 -7.10742 1.27539 -9.81836 3.38379l-588.37 454.72c-3.76562 2.92871 -6.18945 7.50195 -6.18945 12.6377c0 3.69434 1.27344 7.10352 3.37988 9.8125
l19.6299 25.2705c2.92871 3.76172 7.5 6.18359 12.6318 6.18359c3.69727 0 7.10742 -1.27539 9.81836 -3.38379l588.37 -454.72c3.76855 -2.92871 6.19629 -7.50391 6.19629 -12.6426c0 -3.69141 -1.27246 -7.09863 -3.37695 -9.80762z" />
    <glyph glyph-name="th-secondary" unicode="&#x10f00a;" 
d="M306.67 96c13.2461 0 24 -10.7539 24 -24v-80c0 -13.2461 -10.7539 -24 -24 -24h-101.34c-13.2461 0 -24 10.7539 -24 24v80c0 13.2461 10.7539 24 24 24h101.34zM488 256c13.2461 0 24 -10.7539 24 -24v-80c0 -13.2461 -10.7539 -24 -24 -24h-101.33
c-13.2461 0 -24 10.7539 -24 24v80c0 13.2461 10.7539 24 24 24h101.33zM306.67 416c13.2461 0 24 -10.7539 24 -24v-80c0 -13.2461 -10.7539 -24 -24 -24h-101.34c-13.2461 0 -24 10.7539 -24 24v80c0 13.2461 10.7539 24 24 24h101.34zM125.33 256
c13.2461 0 24 -10.7539 24 -24v-80c0 -13.2461 -10.7539 -24 -24 -24h-101.33c-13.2461 0 -24 10.7539 -24 24v80c0 13.2461 10.7539 24 24 24h101.33z" />
    <glyph glyph-name="home-secondary" unicode="&#x10f015;" horiz-adv-x="576" 
d="M336 -15.5898v95.5898c0 8.83105 -7.16895 16 -16 16h-64c-8.83105 0 -16 -7.16895 -16 -16v-95.71c0 -8.80371 -7.12695 -15.9561 -15.9199 -16l-112.08 -0.290039c-8.83105 0 -16 7.16895 -16 16v163.94l184.39 151.85c2.0918 1.68555 4.75 2.69531 7.6416 2.69531
c2.89258 0 5.56738 -1.00977 7.65918 -2.69531l184.31 -151.79v-164c0 -8.83105 -7.16895 -16 -16 -16l-112 0.30957c-8.83105 0 -16 7.16992 -16 16v0.100586z" />
    <glyph glyph-name="eye-secondary" unicode="&#x10f06e;" horiz-adv-x="576" 
d="M572.52 206.6c2.21387 -4.37793 3.46094 -9.38965 3.46094 -14.626c0 -5.2373 -1.24707 -10.1855 -3.46094 -14.5635c-54.1992 -105.771 -161.59 -177.41 -284.52 -177.41s-230.29 71.5898 -284.52 177.4c-2.21387 4.37793 -3.46094 9.38965 -3.46094 14.626
c0 5.2373 1.24707 10.1855 3.46094 14.5635c54.1992 105.771 161.59 177.41 284.52 177.41s230.29 -71.5898 284.52 -177.4zM288.14 48c79.4043 0.0390625 143.861 64.5166 143.861 143.93c0 79.4375 -64.4922 143.931 -143.93 143.931s-143.93 -64.4932 -143.93 -143.931
c0 -79.4131 64.4541 -143.891 143.858 -143.93h0.139648z" />
    <glyph glyph-name="eye-slash-secondary" unicode="&#x10f070;" horiz-adv-x="640" 
d="M172.12 346.73c43.8955 23.6514 94.1016 37.0762 147.418 37.0762c0.046875 0 0.415039 0.193359 0.461914 0.193359c122.93 0 230.29 -71.5898 284.52 -177.4c2.21387 -4.37793 3.46094 -9.32617 3.46094 -14.5625c0 -5.2373 -1.24707 -10.249 -3.46094 -14.627
c-20.1475 -39.4131 -47.54 -73.8701 -81 -102.25l-72.8096 56.2695c8.53125 18.3906 13.293 38.8789 13.293 60.4707c0 79.4756 -64.5244 144 -144 144c-34.7246 0 -66.6113 -12.2393 -91.4932 -32.7402zM411.12 162l-108.25 83.6396
c0.723633 3.30273 1.08301 6.74316 1.08301 10.2617c0 10.585 -3.45312 20.3701 -9.29297 28.2891c8.44336 2.46191 17.3447 3.81641 26.5781 3.81641c52.4326 0 95 -42.5684 95 -95c0 -8.97656 -1.24707 -17.6631 -3.57812 -25.8965
c-0.469727 -1.73047 -0.990234 -3.43066 -1.54004 -5.11035zM320 48c8.91406 0.0800781 17.543 0.973633 26 2.61035l51.8896 -40.1504c-25.0195 -6.45996 -50.9795 -10.46 -77.8896 -10.46c-122.93 0 -230.29 71.5898 -284.52 177.4
c-2.21387 4.37793 -3.46094 9.38965 -3.46094 14.626c0 5.2373 1.24707 10.1855 3.46094 14.5635c10.2393 20 22.9297 38.29 36.7197 55.5898l104.899 -81.0693c5.65039 -74.4004 67.0508 -133.11 142.9 -133.11z" />
    <glyph glyph-name="tty-secondary" unicode="&#x10f1e4;" 
d="M468 192c6.62305 0 12 -5.37695 12 -12v-40c0 -6.62305 -5.37695 -12 -12 -12h-40c-6.62305 0 -12 5.37695 -12 12v40c0 6.62305 5.37695 12 12 12h40zM84 0c6.62305 0 12 -5.37695 12 -12v-40c0 -6.62305 -5.37695 -12 -12 -12h-40c-6.62305 0 -12 5.37695 -12 12v40
c0 6.62305 5.37695 12 12 12h40zM372 0c6.62305 0 12 -5.37695 12 -12v-40c0 -6.62305 -5.37695 -12 -12 -12h-232c-6.62305 0 -12 5.37695 -12 12v40c0 6.62305 5.37695 12 12 12h232zM468 0c6.62305 0 12 -5.37695 12 -12v-40c0 -6.62305 -5.37695 -12 -12 -12h-40
c-6.62305 0 -12 5.37695 -12 12v40c0 6.62305 5.37695 12 12 12h40zM140 128c-6.62305 0 -12 5.37695 -12 12v40c0 6.62305 5.37695 12 12 12h40c6.62305 0 12 -5.37695 12 -12v-40c0 -6.62305 -5.37695 -12 -12 -12h-40zM44 128c-6.62305 0 -12 5.37695 -12 12v40
c0 6.62305 5.37695 12 12 12h40c6.62305 0 12 -5.37695 12 -12v-40c0 -6.62305 -5.37695 -12 -12 -12h-40zM368 84c0 6.62305 5.37695 12 12 12h40c6.62305 0 12 -5.37695 12 -12v-40c0 -6.62305 -5.37695 -12 -12 -12h-40c-6.62305 0 -12 5.37695 -12 12v40zM92 96h40
c6.62305 0 12 -5.37695 12 -12v-40c0 -6.62305 -5.37695 -12 -12 -12h-40c-6.62305 0 -12 5.37695 -12 12v40c0 6.62305 5.37695 12 12 12zM284 96h40c6.62305 0 12 -5.37695 12 -12v-40c0 -6.62305 -5.37695 -12 -12 -12h-40c-6.62305 0 -12 5.37695 -12 12v40
c0 6.62305 5.37695 12 12 12zM332 128c-6.62305 0 -12 5.37695 -12 12v40c0 6.62305 5.37695 12 12 12h40c6.62305 0 12 -5.37695 12 -12v-40c0 -6.62305 -5.37695 -12 -12 -12h-40zM188 96h40c6.62305 0 12 -5.37695 12 -12v-40c0 -6.62305 -5.37695 -12 -12 -12h-40
c-6.62305 0 -12 5.37695 -12 12v40c0 6.62305 5.37695 12 12 12zM236 128c-6.62305 0 -12 5.37695 -12 12v40c0 6.62305 5.37695 12 12 12h40c6.62305 0 12 -5.37695 12 -12v-40c0 -6.62305 -5.37695 -12 -12 -12h-40z" />
    <glyph glyph-name="phone-volume-secondary" unicode="&#x10f2a0;" horiz-adv-x="384" 
d="M292.94 398.77c16.9277 -21.7246 27.0156 -49.2324 27.0156 -78.8809c0 -29.6367 -10.0801 -56.9375 -26.9961 -78.6582c-2.20703 -2.83594 -5.65137 -4.65332 -9.51953 -4.65332c-3.22949 0 -6.16504 1.27246 -8.33008 3.34277l-5.82031 5.58008
c-2.29492 2.18652 -3.7168 5.28125 -3.7168 8.69727c0 2.71484 0.904297 5.2207 2.42676 7.23242c12.4551 16.208 19.8633 36.6455 19.8633 58.6465s-7.4082 42.2861 -19.8633 58.4941c-1.52734 2.01367 -2.44336 4.5332 -2.44336 7.25391
c0 3.41016 1.42578 6.49023 3.71289 8.67578l5.82031 5.58008c2.16602 2.07031 5.09863 3.35156 8.32812 3.35156c3.86914 0 7.31445 -1.82617 9.52246 -4.66211zM338.94 443.71c28.1104 -33.4307 45.0215 -76.7871 45.0215 -123.842
c0 -47.0371 -16.9287 -90.1523 -45.0215 -123.578c-2.20215 -2.6377 -5.51367 -4.31055 -9.21484 -4.31055c-3.2373 0 -6.17578 1.28418 -8.33594 3.37012l-5.7998 5.56055c-2.29395 2.18652 -3.7168 5.27832 -3.7168 8.69336c0 2.92383 1.04688 5.60352 2.78711 7.68652
c23.2236 27.8037 37.2051 63.7832 37.2051 102.808s-13.9814 74.8086 -37.2051 102.612c-1.74023 2.08301 -2.79395 4.77051 -2.79395 7.69336c0 3.41602 1.42969 6.5 3.72363 8.68652l5.7998 5.56055c2.16016 2.08594 5.09766 3.37695 8.33496 3.37695
c3.70117 0 7.01367 -1.67969 9.21582 -4.31738zM228.44 355.11c2.16699 2.08887 5.0791 3.38672 8.3252 3.38672c4.41992 0 8.28711 -2.38477 10.3848 -5.9375c5.61133 -9.52148 8.83105 -20.7559 8.83105 -32.5986s-3.21973 -22.9395 -8.83105 -32.4609
c-2.09668 -3.55664 -5.96094 -5.93164 -10.3848 -5.93164c-3.2334 0 -6.1709 1.27637 -8.33594 3.35156l-6 5.73047c-2.27832 2.19922 -3.68652 5.29688 -3.68652 8.71094c0 2.06055 0.516602 4 1.42676 5.69824c2.36035 4.45996 3.69824 9.61035 3.69824 15.0029
c0 5.39355 -1.33789 10.4775 -3.69824 14.9375c-0.901367 1.69238 -1.42285 3.63574 -1.42285 5.68555c0 3.41211 1.41699 6.49512 3.69336 8.69434z" />
    <glyph glyph-name="battery-slash-secondary" unicode="&#x10f377;" horiz-adv-x="640" 
d="M165.31 352h394.69c26.4922 0 48 -21.5078 48 -48v-16h8c13.2461 0 24 -10.7539 24 -24v-144c0 -13.2461 -10.7539 -24 -24 -24h-8v-16c0 -20.9404 -13.4248 -38.7578 -32.1396 -45.3096l-79.3203 61.3096h47.46v64h32v64h-32v64h-295.88zM64 96h223.19l82.8096 -64h-322
c-26.4922 0 -48 21.5078 -48 48v224c0.0625 4.33301 0.71582 8.53223 1.87012 12.5098l62.1299 -48v-172.51z" />
    <glyph glyph-name="diagnoses-secondary" unicode="&#x10f470;" horiz-adv-x="640" 
d="M320 272c-48.5352 0.0712891 -87.9287 39.4648 -88 88c0 48.5684 39.4316 88 88 88s88 -39.4316 88 -88s-39.4316 -88 -88 -88zM588 155.7c17.5996 -10.5 18.7998 -31.9004 10 -45.1006l-17.7998 -26.6992c-5.75879 -8.59277 -15.5732 -14.2012 -26.6836 -14.2012
c-5.91406 0 -11.457 1.60449 -16.2168 4.40039c-33.0322 19.3779 -68.5869 35.8496 -105.3 48.6006v-90.7002h-224v90.7998c-36.6914 -12.7939 -72.2432 -29.2617 -105.3 -48.5996c-4.76562 -2.83887 -10.3486 -4.52246 -16.293 -4.52246
c-11.1094 0 -20.8994 5.69531 -26.6074 14.3223l-17.7002 26.7002c-8.7998 13.2998 -7.59961 34.5996 10 45.0996c7.40039 4.40039 17.5 10 28.7002 16c31.6006 -27.2998 79 -4.2002 79.2002 36c47.0996 17.7002 103 32.2002 160 32.2002
c45.0996 0 89.2998 -9.2002 129.2 -21.7998c-11.7002 -52.9004 59.5996 -81.2002 87.7002 -35.1006c21.3994 -10.3994 39.1992 -20.2998 51.0996 -27.3994zM272 152c0.0205078 0 0.0400391 -0.000976562 0.0605469 -0.000976562c13.2119 0 23.9395 10.7266 23.9395 23.9395
v0.0615234c0 13.2461 -10.7539 24 -24 24s-24 -10.7539 -24 -24s10.7539 -24 24 -24zM368 88c0.0205078 0 0.0400391 -0.000976562 0.0605469 -0.000976562c13.2119 0 23.9395 10.7266 23.9395 23.9395v0.0615234c0 13.2461 -10.7539 24 -24 24s-24 -10.7539 -24 -24
s10.7539 -24 24 -24z" />
    <glyph glyph-name="box-full-secondary" unicode="&#x10f49c;" horiz-adv-x="640" 
d="M439 65.9004l137 39.0996v-82c-0.0419922 -14.9404 -10.335 -27.4902 -24.2002 -31l-216.399 -54.0996c-4.97754 -1.22266 -10.1797 -1.87109 -15.5312 -1.87109s-10.4922 0.648438 -15.4688 1.87109l-216.16 54.0996
c-13.9043 3.43945 -24.2256 16.0088 -24.2256 30.9688c0 0.0117188 -0.0146484 0.0195312 -0.0146484 0.03125v82l137.1 -39.2002c28.6006 -8.2002 48.3008 10.9004 54.7002 21.6006l64.2002 106.6l64.2998 -106.6c6.54004 -10.8008 26.2402 -29.7002 54.7002 -21.5z" />
    <glyph glyph-name="box-open-secondary" unicode="&#x10f49e;" horiz-adv-x="640" 
d="M439 193.86l137 39.1396v-178c-0.0419922 -14.9404 -10.335 -27.4902 -24.2002 -31l-216.399 -54.0996c-4.97754 -1.22266 -10.1797 -1.87109 -15.5312 -1.87109s-10.4922 0.648438 -15.4688 1.87109l-216.16 54.0996
c-13.9043 3.43945 -24.2256 16.0088 -24.2256 30.9688c0 0.0117188 -0.0146484 0.0195312 -0.0146484 0.03125v178l137 -39.2002c4.14941 -1.23145 8.54297 -1.89258 13.0898 -1.89258c0.0732422 0 0.137695 -0.0078125 0.209961 -0.00683594
c17.6104 0.0498047 33.0039 9.42773 41.5 23.5l64.2002 106.6l64.2998 -106.6c8.47754 -14.0283 23.835 -23.3701 41.4004 -23.4004c0.117188 -0.000976562 0.235352 -0.000976562 0.353516 -0.000976562c4.49902 0 8.83594 0.654297 12.9463 1.86133z" />
    <glyph glyph-name="home-heart-secondary" unicode="&#x10f4c9;" horiz-adv-x="576" 
d="M64.1104 136.62c6.39941 5.30957 43.8896 37.5 224 196.399c179.3 -158.09 217.3 -190.899 224 -196.399v-184.62c-0.0273438 -8.81836 -7.18262 -15.9727 -16 -16h-416c-8.81836 0.0273438 -15.9727 7.18164 -16 16v184.62zM378.21 162.93
c-23.9004 20 -59.5996 16.3906 -81.6104 -5.80957l-8.59961 -8.69043l-8.59961 8.69043c-21.9004 22.2002 -57.6006 25.8096 -81.6006 5.80957c-13.3125 -11.1309 -21.7559 -27.8535 -21.7559 -46.5469c0 -16.5762 6.66406 -31.6094 17.4561 -42.5625l84.7002 -85.5898
c2.52637 -2.54883 6.03223 -4.12891 9.90137 -4.12891s7.37207 1.58008 9.89844 4.12891l84.71 85.5898c10.7549 10.9385 17.4258 25.9307 17.4258 42.4678c0 18.75 -8.5332 35.5225 -21.9258 46.6416z" />
    <glyph glyph-name="drumstick-secondary" unicode="&#x10f6d6;" 
d="M193.7 55.5c-9.7002 -9.7998 -11.1006 -24 -6 -36.7998c12.3994 -30.9004 -2.60059 -66 -33.6006 -78.4004c-22.3994 -9 -48.0996 -3.7002 -65.1992 13.4004c-15.3008 15.2998 -19.6006 36.5 -15.1006 56.0996c-19.5996 -4.5 -40.7998 -0.200195 -56.0996 15.1006
c-23.6006 23.5 -23.7002 61.6992 -0.200195 85.2998c17.0996 17.2002 42.7002 22.3994 65.2002 13.3994c12.7998 -5.09961 27 -3.69922 36.7998 6l40.5 40.5v-10.0996c0 -35.2998 28.7002 -64 64 -64h10.2002z" />
    <glyph glyph-name="drumstick-bite-secondary" unicode="&#x10f6d7;" 
d="M193.69 55.5c-9.7207 -9.75 -11.0908 -24 -6 -36.75c2.77344 -6.92578 4.2998 -14.4834 4.2998 -22.3945c0 -33.292 -27.0283 -60.3203 -60.3193 -60.3203c-16.6885 0 -31.7861 6.74707 -42.7109 17.7148c-15.2695 15.2695 -19.5801 36.5 -15.0898 56.0996
c-19.6006 -4.48926 -40.8301 -0.179688 -56.1006 15.0908c-10.9756 10.9238 -17.7744 26.0439 -17.7744 42.7383c0 33.2861 27.0244 60.3096 60.3105 60.3096c7.9209 0 15.5322 -1.54688 22.4639 -4.32812c12.7607 -5.07031 27.0508 -3.69043 36.7607 6l40.4697 40.4697
v-10.1299c0 -35.3223 28.6777 -64 64 -64h10.2002z" />
    <glyph glyph-name="pie-secondary" unicode="&#x10f705;" horiz-adv-x="576" 
d="M88.75 21.9199l-31 92.8799c32.9102 6.57031 51.2598 23.5 59.5996 29.2002h0.220703c10.1699 -7 36.21 -32 85.3398 -32c50.0898 0 78 27 85.2803 32h0.0791016c10.1104 -7 36.2002 -32 85.2607 -32c49.0596 0 75.1299 25.0596 85.25 32h0.0595703
c7 -4.7998 26.3506 -22.5801 59.46 -29.2002l-31 -92.8799c-4.22461 -12.7275 -16.2227 -21.915 -30.3594 -21.9199h-337.87c-14.1201 0.0224609 -26.0996 9.2041 -30.3203 21.9199z" />
    <glyph glyph-name="turkey-secondary" unicode="&#x10f725;" horiz-adv-x="640" 
d="M491.31 251.45c52.3105 -57.7002 84.6904 -129.88 84.6904 -187.45c0 -114.87 -128.94 -128 -288 -128s-288 13.1299 -288 128s128.94 288 288 288c47.5596 0 92.4199 -15.4805 132 -40.25c-6.30957 -2.75 -13 -5.30957 -20.1104 -7.66016
c-29.8799 -9.88965 -57.0596 -13.1895 -71.2598 -13c-20.3096 0.280273 -38.9502 -2.78027 -55.3799 -9.09961c-31.6084 -11.9453 -56.3838 -37.6309 -67.1201 -69.8105c-12.8496 -39.2393 -5.07031 -81.3398 20.7998 -112.6
c19.833 -24.2344 49.5361 -40.042 82.9199 -41.4502c1.8916 -0.0859375 3.79297 -0.129883 5.70508 -0.129883c5.45508 0 10.6162 0.352539 15.8857 1.04004c43.6699 5.55957 80.7998 39.2002 94.5596 85.7002c3.51953 11.9102 18.2402 46.79 41.2305 78.5898
c7.19629 10.1699 15.1611 19.4668 24.0791 28.1201z" />
    <glyph glyph-name="ball-pile-secondary" unicode="&#x10f77e;" horiz-adv-x="576" 
d="M176 280c44.1533 0 80 -35.8467 80 -80s-35.8467 -80 -80 -80s-80 35.8467 -80 80s35.8467 80 80 80zM400 280c44.1533 0 80 -35.8467 80 -80s-35.8467 -80 -80 -80s-80 35.8467 -80 80s35.8467 80 80 80z" />
    <glyph glyph-name="biohazard-secondary" unicode="&#x10f780;" horiz-adv-x="576" 
d="M206 367.17c25.1328 10.8057 53.124 16.792 82.1973 16.792c29.1621 0 56.9287 -6.02344 82.123 -16.8916c-5.81836 -16.2646 -16.1016 -30.2979 -29.5 -40.6904c-16.6104 5.7998 -34.3008 9.60059 -52.8105 9.60059s-36 -3.80078 -52.5098 -9.5
c-13.3984 10.3926 -23.6826 24.4258 -29.5 40.6895zM129.28 161.34c4.01758 -44.2148 26.0938 -83.3145 58.9102 -109.57c-4.20508 -16.334 -12.8057 -30.9443 -24.5 -42.3896c-47.5127 35.4209 -79.252 90.7051 -83.3105 153.45
c7.08105 2.01172 14.5332 3.10059 22.2549 3.10059c0.0820312 0 0.164062 0 0.245117 -0.000976562c9.21875 -0.110352 18.1211 -1.73242 26.4004 -4.58984zM473.22 165.93c0.0585938 0 0.0917969 -0.0107422 0.150391 -0.0107422
c7.62891 0 15.0195 -1.03027 22.04 -2.95898c-3.89648 -62.7363 -35.5469 -118.032 -83 -153.45c-11.6973 11.4814 -20.2969 26.125 -24.5 42.4902c32.6621 26.2236 54.6455 65.1875 58.71 109.24c8.34473 2.88184 17.3174 4.53711 26.5996 4.68945z" />
    <glyph glyph-name="bacon-secondary" unicode="&#x10f7e5;" horiz-adv-x="576" 
d="M9.08984 40.3799c-12.7002 12.6201 -12.0898 33.6201 1.79004 45.0605c36.3301 30 66.2002 41.0996 91.0605 50.3594c9.16992 3.41016 69 19.2598 98.7197 98.0898c8.60938 22.8105 46.3398 134.591 189 187.73c15.8496 5.91016 27.3594 10.2002 41 20.2998
c5.14453 3.79785 11.5049 6.04395 18.3848 6.04395c8.45605 0 16.1602 -3.375 21.7549 -8.87402l26.3105 -26.1396c-30.1104 -27.6504 -52.8701 -36.3203 -76.7305 -45.3203c-28.2998 -10.6299 -57.5703 -21.6299 -97.3799 -61.3799s-50.7598 -69.0498 -61.3701 -97.3398
c-9.84961 -26.3105 -19.1602 -51.1201 -54.0498 -86s-59.6504 -44.1602 -85.9102 -54c-26 -9.75977 -53 -20.1299 -88.1699 -52.7305zM566.92 343.6c12.7002 -12.5996 12.0801 -33.6494 -1.80957 -45.0498c-36.3701 -30.0098 -66.2402 -41.1396 -91.1104 -50.4199
c-9.20996 -3.43945 -69 -19.3203 -98.7305 -98.1104c-8.92969 -23.5898 -46.7393 -134.699 -188.93 -187.699c-15.8496 -5.90039 -27.3398 -10.1807 -40.9395 -20.2402c-5.15039 -3.81152 -11.5537 -6.08398 -18.4463 -6.08398c-8.46289 0 -16.1377 3.39844 -21.7344 8.9043
l-26.3193 26.1396c30.0898 27.6504 52.8301 36.2998 76.6797 45.2998c28.2998 10.5898 57.5098 21.54 97.2998 61.3203s50.7705 69.0098 61.4102 97.3398c9.80957 26.3096 19.1104 51.1602 54 86s59.6904 44.1504 85.9502 54
c26.0693 9.7998 53.0498 20.1602 88.2402 52.7998z" />
    <glyph glyph-name="book-medical-secondary" unicode="&#x10f7e6;" horiz-adv-x="448" 
d="M96 0c-19.2002 0 -32 12.7998 -32 32s16 32 32 32h319.33c-1.92969 -16.2402 -1.75977 -48.3799 0.530273 -64h-319.86z" />
    <glyph glyph-name="book-user-secondary" unicode="&#x10f7e7;" horiz-adv-x="448" 
d="M96 0c-19.2002 0 -32 12.7998 -32 32s16 32 32 32h319.33c-1.92969 -16.2402 -1.75977 -48.3799 0.530273 -64h-319.86z" />
    <glyph glyph-name="brackets-secondary" unicode="&#x10f7e9;" horiz-adv-x="448" 
d="M448 384v-384c0 -17.6611 -14.3389 -32 -32 -32h-112c-8.83105 0 -16 7.16895 -16 16v32c0 8.83105 7.16895 16 16 16h80v320h-80c-8.83105 0 -16 7.16895 -16 16v32c0 8.83105 7.16895 16 16 16h112c17.6611 0 32 -14.3389 32 -32z" />
    <glyph glyph-name="brackets-curly-secondary" unicode="&#x10f7ea;" horiz-adv-x="576" 
d="M566.64 214.63c5.79102 -5.79199 9.375 -13.791 9.375 -22.6201c0 -8.83008 -3.58398 -16.8379 -9.375 -22.6299l-45.25 -45.25c-5.80078 -5.79297 -9.38867 -13.8027 -9.38965 -22.6396v-37.4902c0 -52.9834 -43.0166 -96 -96 -96h-48c-8.83105 0 -16 7.16895 -16 16v32
c0 8.83105 7.16895 16 16 16h48c17.6611 0 32 14.3389 32 32v37.4805c0.000976562 26.4961 10.7471 50.5127 28.1299 67.8896l22.6299 22.6299l-22.6201 22.6201c-17.3896 17.3789 -28.1396 41.4062 -28.1396 67.9102v37.4697c0 17.6611 -14.3389 32 -32 32h-48
c-8.83105 0 -16 7.16895 -16 16v32c0 8.83105 7.16895 16 16 16h48c52.9834 0 96 -43.0166 96 -96v-37.4805v-0.0146484c0 -8.83496 3.58301 -16.8418 9.37988 -22.6348l45.25 -45.2402h0.00976562z" />
    <glyph glyph-name="bread-loaf-secondary" unicode="&#x10f7eb;" horiz-adv-x="640" 
d="M420 192h-4v-192c0 -17.6611 -14.3389 -32 -32 -32h-288c-17.6611 0 -32 14.3389 -32 32v192h-4c-33.1396 0 -60 28.6504 -60 64c0 88.3701 107.45 160 240 160s240 -71.6299 240 -160c0 -35.3496 -26.8604 -64 -60 -64z" />
    <glyph glyph-name="bread-slice-secondary" unicode="&#x10f7ec;" horiz-adv-x="576" 
d="M288 448c180 0 288 -93.4004 288 -169.14c0 -30.3008 -24.2402 -54.8604 -64 -54.8604v-256c0 -17.6699 -16.1201 -32 -36 -32h-376c-19.8799 0 -36 14.3301 -36 32v256c-39.7598 0 -64 24.5596 -64 54.8604c0 75.7393 108 169.14 288 169.14zM152 0
c13.2461 0 24 10.7539 24 24s-10.7539 24 -24 24s-24 -10.7539 -24 -24s10.7539 -24 24 -24zM152 96c13.2461 0 24 10.7539 24 24s-10.7539 24 -24 24s-24 -10.7539 -24 -24s10.7539 -24 24 -24zM248 0c13.2461 0 24 10.7539 24 24s-10.7539 24 -24 24s-24 -10.7539 -24 -24
s10.7539 -24 24 -24z" />
    <glyph glyph-name="burrito-secondary" unicode="&#x10f7ed;" 
d="M351.83 224c0.0263672 0 0.176758 -0.0664062 0.203125 -0.0664062c41.2705 0 79.2285 -14.2969 109.187 -38.2031l-216 -215.73c-21.0303 -20.998 -50.0898 -33.9902 -82.126 -33.9902c-32.0371 0 -61.0635 12.9922 -82.0938 33.9902l-47.54 47.5
c-25.8799 25.8604 -36.46 60.9404 -32.7402 94.7402c32.0049 -20.3174 70.1729 -32.2227 110.851 -32.2402c90.0801 0 166.76 57.5498 195.72 137.68c14.54 3.79004 29.3203 6.32031 44.54 6.32031zM287.76 288c0 -97.0498 -79.0498 -176 -176.189 -176
c-38.2207 0.00390625 -73.7578 12.3633 -102.57 33.1699c5.79688 13.6982 14.0977 25.9854 24.4297 36.3799l216 215.73c23.9414 -29.9189 38.3301 -67.9844 38.3301 -109.246v-0.0341797z" />
    <glyph glyph-name="chart-scatter-secondary" unicode="&#x10f7ee;" 
d="M512 48v-32c0 -8.83105 -7.16895 -16 -16 -16h-464c-17.6611 0 -32 14.3389 -32 32v336c0 8.83105 7.16895 16 16 16h32c8.83105 0 16 -7.16895 16 -16v-304h432c8.83105 0 16 -7.16895 16 -16z" />
    <glyph glyph-name="cheese-secondary" unicode="&#x10f7ef;" 
d="M299.83 416c118.17 -6.21973 212.17 -104.13 212.17 -224h-512l278.7 217c5.47656 4.38477 12.4229 7.00781 19.9775 7.00781c0.383789 0 0.771484 0.00585938 1.15234 -0.0078125z" />
    <glyph glyph-name="cheese-swiss-secondary" unicode="&#x10f7f0;" 
d="M299.83 416c118.17 -6.21973 212.17 -104.13 212.17 -224h-512l141.84 110.44c8.69434 -8.84277 20.791 -14.3301 34.1592 -14.3301c26.4414 0 47.9092 21.4678 47.9092 47.9102c0 9.0918 -2.56348 17.6543 -6.96777 24.8994l61.7598 48.0801
c5.47656 4.38477 12.4229 7.00781 19.9775 7.00781c0.383789 0 0.771484 0.00585938 1.15234 -0.0078125z" />
    <glyph glyph-name="clinic-medical-secondary" unicode="&#x10f7f2;" horiz-adv-x="576" 
d="M288 333l218.74 -192.91c1.54004 -1.37988 3.55957 -2.04004 5.25977 -3.2002v-184.89c0 -8.83105 -7.16895 -16 -16 -16h-415.99c-8.83008 0 -16 7.16895 -16 16v184.93c1.78027 1.20996 3.85059 1.89062 5.4707 3.35059zM384 72v48c0 4.41504 -3.58496 8 -8 8h-56v56
c0 4.41504 -3.58496 8 -8 8h-48c-4.41504 0 -8 -3.58496 -8 -8v-56h-56c-4.41504 0 -8 -3.58496 -8 -8v-48c0 -4.41504 3.58496 -8 8 -8h56v-56c0 -4.41504 3.58496 -8 8 -8h48c4.41504 0 8 3.58496 8 8v56h56c4.41504 0 8 3.58496 8 8z" />
    <glyph glyph-name="clipboard-user-secondary" unicode="&#x10f7f3;" horiz-adv-x="384" 
d="M336 385c26.4922 0 48 -21.5078 48 -48v-352c0 -26.4922 -21.5078 -48 -48 -48h-288c-26.4922 0 -48 21.5078 -48 48v352c0 26.4922 21.5078 48 48 48h80v-1c-35.3223 0 -64 -28.6777 -64 -64h256c0 35.3223 -28.6777 64 -64 64v1h80zM192 256
c-35.3223 0 -64 -28.6777 -64 -64s28.6777 -64 64 -64s64 28.6777 64 64s-28.6777 64 -64 64zM304 19.2002l0.0996094 19.2002c0 31.8096 -30.0898 57.5996 -67.1992 57.5996h-5c-12.2451 -5.125 -25.8242 -7.95605 -39.9199 -7.95605s-27.5352 2.83105 -39.7803 7.95605h-5
c-37.1104 0 -67.2002 -25.79 -67.2002 -57.5996v-19.2002c0 -10.6006 10 -19.2002 22.4004 -19.2002h179.199c12.4004 0 22.4004 8.58984 22.4004 19.2002z" />
    <glyph glyph-name="comment-alt-medical-secondary" unicode="&#x10f7f4;" 
d="M448 448c35.3223 0 64 -28.6777 64 -64v-288c0 -35.3223 -28.6777 -64 -64 -64h-144l-124.87 -93.6504c-1.99219 -1.47168 -4.46582 -2.34766 -7.12988 -2.34766c-6.62207 0 -11.999 5.37598 -12 11.998v84h-96c-35.3223 0 -64 28.6777 -64 64v288
c0 35.3223 28.6777 64 64 64h384zM352 216v48c0 4.41504 -3.58496 8 -8 8h-56v56c0 4.41504 -3.58496 8 -8 8h-48c-4.41504 0 -8 -3.58496 -8 -8v-56h-56c-4.41504 0 -8 -3.58496 -8 -8v-48c0 -4.41504 3.58496 -8 8 -8h56v-56c0 -4.41504 3.58496 -8 8 -8h48
c4.41504 0 8 3.58496 8 8v56h56c4.41504 0 8 3.58496 8 8z" />
    <glyph glyph-name="comment-medical-secondary" unicode="&#x10f7f5;" 
d="M256 416c141.39 0 256 -93.1201 256 -208s-114.61 -208 -256 -208c-0.162109 0 -0.448242 0.107422 -0.610352 0.107422c-37.5654 0 -73.5518 6.81445 -106.79 19.2725c-24.5996 -19.6299 -74.3398 -51.3799 -140.6 -51.3799
c-4.41113 0.00488281 -7.99023 3.58984 -7.99023 8.00195c0 2.12891 0.833008 4.06445 2.19043 5.49805c0.5 0.5 42.2598 45.4502 54.7998 95.7598c-35.5898 35.7402 -57 81.1807 -57 130.74c0 114.88 114.62 208 256 208zM352 184v48c0 4.41504 -3.58496 8 -8 8h-56v56
c0 4.41504 -3.58496 8 -8 8h-48c-4.41504 0 -8 -3.58496 -8 -8v-56h-56c-4.41504 0 -8 -3.58496 -8 -8v-48c0 -4.41504 3.58496 -8 8 -8h56v-56c0 -4.41504 3.58496 -8 8 -8h48c4.41504 0 8 3.58496 8 8v56h56c4.41504 0 8 3.58496 8 8z" />
    <glyph glyph-name="croissant-secondary" unicode="&#x10f7f6;" 
d="M13.1504 182.52l208 -64c0.199219 -0.0898438 0.40918 -0.0292969 0.619141 -0.0898438c-1.93945 -6.01953 -4.94922 -11.5996 -10.0498 -15.5996l-122.319 -96c-5.43848 -4.26953 -12.3164 -6.83008 -19.7607 -6.83008
c-1.38574 0.00195312 -2.71875 0.0888672 -4.05957 0.259766c-8.68945 1.11133 -16.3135 5.68945 -21.3799 12.3301c-27.5283 36.1465 -43.9736 81.2715 -43.9736 130.169c0 14.8408 1.50586 29.333 4.37305 43.3311c2.72461 -1.38184 5.61523 -2.5918 8.55078 -3.57031z
M447.71 382.37c0.172852 -1.34668 0.248047 -2.71094 0.248047 -4.10547c0 -7.44434 -2.54395 -14.3008 -6.80762 -19.7451l-96 -122.319c-3.99023 -5 -9.61035 -8.07031 -15.6104 -10c-0.0898438 0.209961 -0.0302734 0.419922 -0.0898438 0.620117l-64 208
c-0.980469 3.17969 -2.87012 5.76953 -4.28027 8.69922c14.1465 2.93555 28.8164 4.38477 43.8271 4.38477c49.0107 0 94.2109 -16.4414 130.383 -44.1045c6.65137 -5.07715 11.2314 -12.7197 12.3301 -21.4297z" />
    <glyph glyph-name="crutch-secondary" unicode="&#x10f7f7;" 
d="M281 398.09c-2.89648 2.89648 -4.68945 6.89648 -4.68945 11.3125s1.79297 8.4209 4.68945 11.3174l22.6904 22.6006c2.89551 2.89355 6.89355 4.68457 11.3076 4.68457c4.41309 0 8.41602 -1.79102 11.3115 -4.68457l181 -181
c2.87109 -2.89258 4.64453 -6.875 4.64453 -11.2676c0 -4.42383 -1.79785 -8.43555 -4.7041 -11.333l-22.6201 -22.6299c-2.89648 -2.89648 -6.89648 -4.68945 -11.3125 -4.68945s-8.4209 1.79297 -11.3174 4.68945z" />
    <glyph glyph-name="crutches-secondary" unicode="&#x10f7f8;" horiz-adv-x="640" 
d="M635.28 262.3c2.87891 -2.89355 4.65918 -6.88672 4.65918 -11.2871c0 -4.41602 -1.79297 -8.41602 -4.68945 -11.3125l-22.6201 -22.6299c-2.89648 -2.89746 -6.90137 -4.69043 -11.3174 -4.69043s-8.41602 1.79297 -11.3125 4.69043l-181 181
c-2.89648 2.89551 -4.68945 6.90137 -4.68945 11.3174c0 4.41504 1.79297 8.41602 4.68945 11.3125l22.6602 22.5996c2.89551 2.89453 6.89844 4.68457 11.3125 4.68457c4.41309 0 8.41113 -1.79004 11.3076 -4.68457zM507.28 -14.0596
c2.89355 -2.89648 4.6543 -6.89941 4.6543 -11.3125c0 -4.41406 -1.79102 -8.41211 -4.68457 -11.3076l-22.6201 -22.6299c-2.89648 -2.89746 -6.90137 -4.69043 -11.3174 -4.69043s-8.41602 1.79297 -11.3125 4.69043l-90.29 90.3096l35.6201 8.25
c11.8682 2.74121 23.3164 7.20996 33.6699 13zM231 398.07l-11.3799 -11.3203l77.7197 -77.75l-31.9297 -31.9102c-4.4668 -4.49512 -8.52441 -9.22656 -12.29 -14.3398l-78.75 78.75l-67.8896 -67.8896l112.22 -112.24l-13.2197 -57.3203l-9.69043 -9.68945
c-0.700195 0.649414 -1.58984 1.0293 -2.27051 1.70996l-132.289 132.239l-11.3203 -11.3096c-2.89648 -2.89648 -6.90137 -4.68945 -11.3174 -4.68945s-8.41602 1.79297 -11.3125 4.68945l-22.6006 22.7002c-2.89355 2.89551 -4.68457 6.89844 -4.68457 11.3125
c0 4.41309 1.79102 8.41113 4.68457 11.3076l181 181c2.89648 2.89355 6.89941 4.68457 11.3125 4.68457s8.41211 -1.79102 11.3076 -4.68457l22.7002 -22.6299c2.89355 -2.89648 4.68457 -6.89941 4.68457 -11.3125c0 -4.41406 -1.79102 -8.41211 -4.68457 -11.3076z" />
    <glyph glyph-name="debug-secondary" unicode="&#x10f7f9;" 
d="M159.12 109.31l24.7998 16.54c-3.30859 7.02051 -5.6582 14.7559 -6.76953 22.7207l-30.8809 -4.41016c-0.746094 -0.107422 -1.50977 -0.162109 -2.28613 -0.162109c-8.83105 0 -16.001 7.16992 -16.001 16.001c0 8.05566 5.99707 14.7305 13.748 15.8408
l34.2695 4.90039v0.759766l98.9404 -98.9502c-6.28027 -1.65918 -12.873 -2.54395 -19.6719 -2.54395c-20.0469 0 -38.3154 7.68652 -52.0088 20.2744l-26.3896 -17.5898c-0.150391 -0.110352 -0.310547 -0.209961 -0.469727 -0.310547
c-2.45215 -1.52832 -5.34668 -2.41113 -8.44629 -2.41113c-8.83105 0 -16 7.16895 -16 16c0 5.58008 2.83008 10.4775 7.16602 13.3408zM383.84 157.73c-1.10938 -7.75098 -7.7666 -13.7334 -15.8223 -13.7334c-0.776367 0 -1.54004 0.0556641 -2.28711 0.163086
l-19.4102 2.76953l-139.83 139.88c13.6104 10.7529 30.8916 17.1934 49.5674 17.1934c20.3623 0 38.9561 -7.63379 53.0723 -20.1934l26 17.3408l0.459961 0.30957c2.49023 1.59863 5.48535 2.5459 8.66211 2.5459c8.83105 0 16.001 -7.16992 16.001 -16.001
c0 -5.65527 -2.93945 -10.6289 -7.37305 -13.4746l-24.54 -16.3604c3.3418 -7.05762 5.71875 -14.8379 6.85059 -22.8496l30.54 4.35938c0.746094 0.107422 1.47754 0.161133 2.25293 0.161133c8.83203 0 16.002 -7.16992 16.002 -16.001
c0 -8.05566 -5.96484 -14.7295 -13.7158 -15.8398l-34.2695 -4.90039v-22.3594l34.2695 -4.90039c7.75098 -1.10938 13.7334 -7.7666 13.7334 -15.8223c0 -0.776367 -0.0556641 -1.54004 -0.163086 -2.28711z" />
    <glyph glyph-name="disease-secondary" unicode="&#x10f7fa;" 
d="M472.27 252c48.54 -16.5703 53.8301 -73.7803 8.99023 -96.7402l-62 -31.7402c-17.8301 -9.12988 -29.2793 -25.1992 -30.6299 -43l-4.7002 -61.8594c-3.44922 -44.79 -65.1299 -66.7803 -104.449 -37.2197l-54.3203 40.8291
c-15.6201 11.7305 -36.96 16.1201 -57.0703 11.7305l-70 -15.2803c-50.6494 -11.0596 -94.0898 32.5605 -73.46 73.7803l28.4297 57c8.18066 16.3799 6.44043 35.1699 -4.63965 50.2402l-38.54 52.4199c-27.9297 37.9502 7 86.9102 59 82.8398l71.9199 -5.59961
c20.6602 -1.62012 40.9404 5.59961 54.2002 19.3096l46.0703 47.6699c33.4297 34.5098 98.4199 21.1504 110 -22.6201l16 -60.4502c4.59961 -17.3896 18.8594 -31.71 38.1396 -38.3096zM160 191.95c17.6611 0 32 14.3389 32 32s-14.3389 32 -32 32s-32 -14.3389 -32 -32
s14.3389 -32 32 -32zM288 95.9502c17.6611 0 32 14.3389 32 32s-14.3389 32 -32 32s-32 -14.3389 -32 -32s14.3389 -32 32 -32zM304 223.95c8.83105 0 16 7.16895 16 16c0 8.83008 -7.16895 16 -16 16s-16 -7.16992 -16 -16c0 -8.83105 7.16895 -16 16 -16z" />
    <glyph glyph-name="egg-secondary" unicode="&#x10f7fb;" horiz-adv-x="384" 
d="M304 128c0 -61.8145 -50.1855 -112 -112 -112s-112 50.1855 -112 112c0 18.3203 4.25977 44.4004 11.6904 71.5596c8.33594 30.4756 19.8721 60.3135 33.8398 88c14 27.4502 29.29 49.8809 44.29 64.8701l0.359375 0.360352
c5.60352 5.55176 13.3115 8.9834 21.8154 8.9834c8.50293 0 16.2217 -3.43164 21.8252 -8.9834l0.359375 -0.360352c15 -15 30.3105 -37.4199 44.29 -64.8701c13.9678 -27.6865 25.5039 -57.5244 33.8398 -88c7.43066 -27.1592 11.6904 -53.2393 11.6904 -71.5596z" />
    <glyph glyph-name="egg-fried-secondary" unicode="&#x10f7fc;" 
d="M478.31 297.55c54.3301 -51.5498 38.9004 -149.28 -17.2998 -192.1c-47.5898 -36.1699 -97.3096 -32.4502 -141 -73.8906c-57.6699 -54.7393 -111.67 -119.84 -204.67 -86.4492c-62.1602 22.3096 -110.58 84.8301 -115 150.739
c-4.41992 65.9102 38.9004 128.57 50 192.91c13.2705 77.1406 38.21 143.141 125 157.141c70.4297 11.3496 108.75 -25.1006 158.561 -66.1104c43.6699 -35.9502 104.909 -41.5303 144.409 -82.2402zM224 95.6201c61.8164 0.0771484 111.983 50.2793 112 112.11
c0 61.8291 -50.2695 112.119 -112 112.119s-112 -50.3096 -112 -112.119c0 -61.8105 50.25 -112.11 112 -112.11z" />
    <glyph glyph-name="fish-cooked-secondary" unicode="&#x10f7fe;" horiz-adv-x="640" 
d="M363.43 384c152.74 0 276.57 -153.6 276.57 -192s-123.83 -192 -276.57 -192c-99.96 0 -187.27 65.7197 -235.899 121.94l-97 -79.2607c-13.4707 -11 -33.5303 0.720703 -30.1504 17.5898l26.8799 131.73l-26.8701 131.71
c-3.38965 16.8701 16.6807 28.6104 30.1904 17.5498l97 -79.2598c48.5898 56.2803 135.85 122 235.85 122zM245.68 186.32c1.44727 -1.44141 3.44434 -2.33301 5.64648 -2.33301c2.2168 0 4.22461 0.904297 5.67383 2.3623l84.6299 84.6807
c1.44727 1.44727 2.34277 3.44922 2.34277 5.65625c0 2.20605 -0.895508 4.20508 -2.34277 5.65332l-11.3203 11.3203c-1.44727 1.44727 -3.44922 2.3418 -5.65527 2.3418c-2.20703 0 -4.20605 -0.894531 -5.6543 -2.3418l-84.6299 -84.7197
c-1.44727 -1.44824 -2.34277 -3.4502 -2.34277 -5.65625c0 -2.20703 0.895508 -4.20605 2.34277 -5.6543zM304.96 106.32l148.67 148.71c1.44727 1.44727 2.34277 3.44922 2.34277 5.65625c0 2.20605 -0.895508 4.20508 -2.34277 5.65332l-11.3203 11.3203
c-1.44727 1.44727 -3.44922 2.3418 -5.65527 2.3418c-2.20703 0 -4.20605 -0.894531 -5.6543 -2.3418l-148.66 -148.72c-1.44727 -1.44824 -2.3418 -3.4502 -2.3418 -5.65625c0 -2.20703 0.894531 -4.20605 2.3418 -5.6543l11.3105 -11.3096
c1.44727 -1.44727 3.44922 -2.34277 5.65527 -2.34277c2.20703 0 4.20605 0.895508 5.6543 2.34277zM501.69 175c1.4375 1.44629 2.32715 3.44141 2.32715 5.64062c0 2.23047 -0.914062 4.24805 -2.3877 5.69922l-11.3203 11.3203
c-1.44727 1.44727 -3.44922 2.3418 -5.65527 2.3418c-2.20703 0 -4.20605 -0.894531 -5.6543 -2.3418l-84.6201 -84.6904c-1.44727 -1.44727 -2.3418 -3.44922 -2.3418 -5.65625c0 -2.20605 0.894531 -4.20508 2.3418 -5.65332l11.3105 -11.3105
c1.44727 -1.44629 3.44922 -2.3418 5.65527 -2.3418c2.20703 0 4.20605 0.895508 5.6543 2.3418z" />
    <glyph glyph-name="flower-daffodil-secondary" unicode="&#x10f800;" 
d="M511.93 111.16c-9.98926 -98.1602 -106.359 -175.16 -223.76 -175.16h-64.3398c-117.4 0 -213.771 77 -223.76 175.16c-0.94043 9.12012 6.87012 16.8398 16.0596 16.8398h47.2598c63 0 119.82 -22.2305 160.61 -57.9199v96.5801
c12.7773 5.59668 23.7227 14.3174 32 25.3398c8.27734 -11.0225 19.2227 -19.7432 32 -25.3398v-96.5801c40.79 35.6895 97.6104 57.9199 160.61 57.9199h47.2598c9.18945 0 16.9795 -7.71973 16.0596 -16.8398z" />
    <glyph glyph-name="flower-tulip-secondary" unicode="&#x10f801;" 
d="M511.94 111.16c-9.94043 -98.1602 -106.36 -175.16 -223.761 -175.16h-64.3398c-117.399 0 -213.77 77 -223.76 175.16c-0.94043 9.12012 6.91992 16.8398 16.0596 16.8398h47.2607c63 0 119.819 -22.2305 160.609 -57.9199v121.92h64v-121.92
c40.79 35.6895 97.6104 57.9199 160.61 57.9199h47.2598c9.19043 0 16.9805 -7.71973 16.0605 -16.8398z" />
    <glyph glyph-name="folder-tree-secondary" unicode="&#x10f802;" horiz-adv-x="576" 
d="M0 32v400c0 8.83105 7.16895 16 16 16h32c8.83105 0 16 -7.16895 16 -16v-80h192v-64h-192v-224h192v-64h-224c-17.6611 0 -32 14.3389 -32 32z" />
    <glyph glyph-name="glass-secondary" unicode="&#x10f804;" horiz-adv-x="384" 
d="M93.7998 0l-20.5801 288h237.55l-20.5693 -288h-196.4z" />
    <glyph glyph-name="hamburger-secondary" unicode="&#x10f805;" 
d="M58.6396 224c-34.5693 0 -54.6396 43.9102 -34.8193 75.8896c40.1797 64.9102 128.64 116.011 232.18 116.11c103.55 -0.0996094 192 -51.2002 232.18 -116.12c19.8008 -31.9795 -0.25 -75.8799 -34.8193 -75.8799h-394.721zM384 336c-8.83105 0 -16 -7.16895 -16 -16
s7.16895 -16 16 -16s16 7.16895 16 16s-7.16895 16 -16 16zM256 368c-8.83105 0 -16 -7.16895 -16 -16s7.16895 -16 16 -16s16 7.16895 16 16s-7.16895 16 -16 16zM128 336c-8.83105 0 -16 -7.16895 -16 -16s7.16895 -16 16 -16s16 7.16895 16 16s-7.16895 16 -16 16z
M480 64c8.83105 0 16 -7.16895 16 -16v-16c0 -35.3223 -28.6777 -64 -64 -64h-352c-35.3223 0 -64 28.6777 -64 64v16c0 8.83105 7.16895 16 16 16h448z" />
    <glyph glyph-name="hard-hat-secondary" unicode="&#x10f807;" 
d="M0 16v32c0 8.83105 7.16895 16 16 16h480c8.83105 0 16 -7.16895 16 -16v-32c0 -8.83105 -7.16895 -16 -16 -16h-480c-8.83105 0 -16 7.16895 -16 16z" />
    <glyph glyph-name="head-side-brain-secondary" unicode="&#x10f808;" 
d="M509.21 173c1.76367 -3.9668 2.75879 -8.38281 2.75879 -13c0 -17.6514 -14.3213 -31.9834 -31.9688 -32h-32v-64c0 -35.3223 -28.6777 -64 -64 -64h-64v-64h-256v177.18c-39.3125 35.0439 -64 86.0303 -64 142.785v0.0351562c0 106 86 192 192 192h74.0898
c70.3037 -0.0107422 132.39 -34.7783 170.04 -88.25c24.6396 -35.0195 52.1396 -139.63 73.0801 -186.75zM336 240c26.4922 0 48 21.5078 48 48s-21.5078 48 -48 48h-2.94043c-6.38867 18.6143 -24.0938 31.9678 -44.8643 31.9678
c-8.6416 0 -16.7461 -2.31934 -23.7256 -6.36816c-8.44629 13.4795 -23.374 22.4492 -40.4395 22.4492c-17.0664 0 -32.0537 -8.96973 -40.5 -22.4492c-6.91211 4.00879 -14.9834 6.35254 -23.5303 6.40039c-26.4922 0 -48 -21.5078 -48 -48
c-0.0400391 0 -0.0898438 0.0136719 -0.129883 0.0136719c-26.4258 0 -47.8799 -21.4541 -47.8799 -47.8799c0 -20.9727 13.5127 -38.8135 32.2998 -45.2842c-0.0595703 -0.959961 -0.290039 -1.84961 -0.290039 -2.84961c0 -26.4922 21.5078 -48 48 -48
c5.60938 0.0537109 11.0146 1.09863 16 2.94043v-50.9404h64v50.9404c4.98535 -1.8418 10.3906 -2.88672 16 -2.94043c26.4922 0 48 21.5078 48 48c-0.0537109 5.60938 -1.09863 11.0146 -2.94043 16h50.9404z" />
    <glyph glyph-name="head-side-medical-secondary" unicode="&#x10f809;" 
d="M509.21 173c1.76367 -3.9668 2.75879 -8.38281 2.75879 -13c0 -17.6514 -14.3213 -31.9834 -31.9688 -32h-32v-64c0 -35.3223 -28.6777 -64 -64 -64h-64v-64h-256v177.18c-39.3125 35.0439 -64 86.0303 -64 142.785v0.0351562c0 106 86 192 192 192h74.0898
c70.3037 -0.0107422 132.39 -34.7783 170.04 -88.25c24.6396 -35.0195 52.1396 -139.63 73.0801 -186.75zM320 232v48c0 4.41504 -3.58496 8 -8 8h-56v56c0 4.41504 -3.58496 8 -8 8h-48c-4.41504 0 -8 -3.58496 -8 -8v-56h-56c-4.41504 0 -8 -3.58496 -8 -8v-48
c0 -4.41504 3.58496 -8 8 -8h56v-56c0 -4.41504 3.58496 -8 8 -8h48c4.41504 0 8 3.58496 8 8v56h56c4.41504 0 8 3.58496 8 8z" />
    <glyph glyph-name="home-alt-secondary" unicode="&#x10f80a;" horiz-adv-x="576" 
d="M336 -15.5801v95.6396c0 8.83105 -7.16895 16 -16 16h-64c-8.83105 0 -16 -7.16895 -16 -16v-95.71c0 -8.80273 -7.12695 -15.9561 -15.9199 -16l-112.08 -0.290039c-8.83105 0 -16 7.16992 -16 16v163.891l184.39 151.85c2.0918 1.68555 4.75 2.69531 7.6416 2.69531
c2.89258 0 5.56738 -1.00977 7.65918 -2.69531l184.31 -151.74v-164c0 -8.83008 -7.16895 -16 -16 -16l-112 0.310547c-8.83105 0 -16 7.16895 -16 16v0.0498047z" />
    <glyph glyph-name="home-lg-secondary" unicode="&#x10f80b;" horiz-adv-x="576" 
d="M496 -64h-128c-8.83105 0 -16 7.16895 -16 16v128c0 8.83105 -7.16895 16 -16 16h-96c-8.83105 0 -16 -7.16895 -16 -16v-128c0 -8.83105 -7.16895 -16 -16 -16h-128c-8.83105 0 -16 7.16895 -16 16v185c1.78027 1.20996 3.84961 1.88965 5.46973 3.34961l218.53 192.65
l218.74 -192.9c1.54004 -1.37988 3.55957 -2 5.25977 -3.19922v-184.9c0 -8.83105 -7.16895 -16 -16 -16z" />
    <glyph glyph-name="home-lg-alt-secondary" unicode="&#x10f80c;" horiz-adv-x="576" 
d="M352 -48v128c0 8.83105 -7.16895 16 -16 16h-96c-8.83105 0 -16 -7.16895 -16 -16v-128c0 -8.83105 -7.16895 -16 -16 -16h-128c-8.83105 0 -16 7.16895 -16 16v184.93c1.78027 1.20996 3.84961 1.89062 5.46973 3.35059l218.53 192.72l218.74 -192.9
c1.54004 -1.37988 3.55957 -2 5.25977 -3.19922v-184.9c0 -8.83105 -7.16895 -16 -16 -16h-128c-8.83105 0 -16 7.16895 -16 16z" />
    <glyph glyph-name="hospitals-secondary" unicode="&#x10f80e;" horiz-adv-x="640" 
d="M608 352c17.6611 0 32 -14.3389 32 -32v-352c0 -17.6611 -14.3389 -32 -32 -32h-224c-17.6611 0 -32 14.3389 -32 32v352c0 17.6611 14.3389 32 32 32v64c0 17.6611 14.3389 32 32 32h160c17.6611 0 32 -14.3389 32 -32v-64zM480 44v40c0 6.62305 -5.37695 12 -12 12h-40
c-6.62305 0 -12 -5.37695 -12 -12v-40c0 -6.62305 5.37695 -12 12 -12h40c6.62305 0 12 5.37695 12 12zM480 172v40c0 6.62305 -5.37695 12 -12 12h-40c-6.62305 0 -12 -5.37695 -12 -12v-40c0 -6.62305 5.37695 -12 12 -12h40c6.62305 0 12 5.37695 12 12zM482.67 288
h26.6602c4.41504 0 8 3.58496 8 8v34.6699h34.6699c4.41504 0 8 3.58496 8 8v26.6602c0 4.41504 -3.58496 8 -8 8h-34.6699v34.6699c0 4.41504 -3.58496 8 -8 8h-26.6602c-4.41504 0 -8 -3.58496 -8 -8v-34.6699h-34.6699c-4.41504 0 -8 -3.58496 -8 -8v-26.6602
c0 -4.41504 3.58496 -8 8 -8h34.6699v-34.6699c0 -4.41504 3.58496 -8 8 -8zM576 44v40c0 6.62305 -5.37695 12 -12 12h-40c-6.62305 0 -12 -5.37695 -12 -12v-40c0 -6.62305 5.37695 -12 12 -12h40c6.62305 0 12 5.37695 12 12zM576 172v40c0 6.62305 -5.37695 12 -12 12
h-40c-6.62305 0 -12 -5.37695 -12 -12v-40c0 -6.62305 5.37695 -12 12 -12h40c6.62305 0 12 5.37695 12 12zM200 373.33c4.41504 0 8 -3.58496 8 -8v-26.6602c0 -4.41504 -3.58496 -8 -8 -8h-34.6699v-34.6699c0 -4.41504 -3.58496 -8 -8 -8h-26.6602
c-4.41504 0 -8 3.58496 -8 8v34.6699h-34.6699c-4.41504 0 -8 3.58496 -8 8v26.6602c0 4.41504 3.58496 8 8 8h34.6699v34.6699c0 4.41504 3.58496 8 8 8h26.6602c4.41504 0 8 -3.58496 8 -8v-34.6699h34.6699z" />
    <glyph glyph-name="hotdog-secondary" unicode="&#x10f80f;" 
d="M488.62 424.62c14.4473 -14.4541 23.3867 -34.4355 23.3867 -56.4658c0 -22.0312 -8.93945 -41.9902 -23.3867 -56.4443l-351.3 -351.3c-0.680664 -0.700195 -1.33008 -1.35059 -2 -2c-14.4053 -14.1113 -34.1621 -22.8086 -55.9004 -22.8086
c-44.0703 0 -79.8496 35.7793 -79.8496 79.8496c0 22.7441 9.5293 43.2793 24.8096 57.8291l351.33 351.34c14.4541 14.4473 34.4355 23.3867 56.4658 23.3867c22.0312 0 41.9902 -8.93945 56.4443 -23.3867zM438.62 329.37
c2.89648 2.89648 4.69434 6.90137 4.69434 11.3174c0 8.83105 -7.16992 16.002 -16.002 16.002c-4.41602 0 -8.41602 -1.79297 -11.3125 -4.68945c-12.4102 -12.4102 -21.71 -14 -34.71 -16.2305c-14.4004 -2.46973 -32.3203 -5.55957 -51.9199 -25.1494
c-19.6006 -19.5898 -22.6699 -37.5205 -25.1396 -51.9199c-2.24023 -12.9502 -3.84082 -22.3105 -16.2402 -34.71c-12.4004 -12.4004 -21.7002 -14.0098 -34.7002 -16.2305c-14.4004 -2.46973 -32.3203 -5.5498 -51.9199 -25.1396
c-19.6006 -19.5898 -22.6699 -37.5205 -25.1504 -51.9199c-2.21973 -12.9502 -3.80957 -22.29 -16.2197 -34.7002s-21.71 -14.0098 -34.71 -16.2305c-14.4004 -2.46973 -32.3203 -5.5498 -51.9199 -25.1396c-2.89648 -2.89648 -4.68457 -6.90137 -4.68457 -11.3174
c0 -8.83105 7.16992 -16.002 16.002 -16.002c4.41602 0 8.41602 1.79297 11.3125 4.68945c12.3799 12.4004 21.7402 14 34.7002 16.2305c14.3994 2.46973 32.3301 5.55957 51.9297 25.1494c19.6006 19.5898 22.6699 37.5205 25.1396 51.9199
c2.23047 12.9502 3.83008 22.2998 16.2305 34.7002s21.7002 14 34.7002 16.2197c14.3994 2.48047 32.3193 5.56055 51.9199 25.1504c19.5996 19.5898 22.6699 37.5195 25.1494 51.9199c2.23047 12.9502 3.85059 22.3096 16.2305 34.71s21.7402 14 34.6904 16.2305
c14.4092 2.46973 32.3291 5.5498 51.9297 25.1396z" />
    <glyph glyph-name="island-tropical-secondary" unicode="&#x10f811;" horiz-adv-x="448" 
d="M284.91 89.2002c-13.7852 4.39355 -28.4775 6.79785 -43.71 6.7998h-45.0703c10 42.8496 25 122.77 21 202.33l21.7598 21.6699h27.3906c11.1602 -48 28.5801 -142.41 18.6299 -230.8z" />
    <glyph glyph-name="laptop-medical-secondary" unicode="&#x10f812;" horiz-adv-x="640" 
d="M528 448c26.4561 -0.0771484 47.9229 -21.5439 48 -48v-336h-512v336c0.0771484 26.4561 21.5439 47.9229 48 48h416zM512 128v256h-384v-256h384z" />
    <glyph glyph-name="meat-secondary" unicode="&#x10f814;" 
d="M376.27 311.9c14.7305 -14.71 18.6904 -34.5605 8.88086 -44.3701c-9.81055 -9.81055 -29.6904 -5.83008 -44.4199 8.87012c-14.7305 14.6992 -18.7305 34.5996 -8.88086 44.3691c9.85059 9.77051 29.7002 5.84082 44.4199 -8.86914zM128 136
c0 -39.7383 32.2617 -72 72 -72h2.33984l-8.57031 -8.55957c-9.71973 -9.75 -11.0996 -24.0205 -6 -36.75c2.77344 -6.92676 4.31543 -14.5293 4.31543 -22.4404c0 -33.3135 -27.0459 -60.3604 -60.3594 -60.3604c-16.7148 0 -31.8506 6.80859 -42.7852 17.8008
c-15.29 15.2695 -19.6006 36.5 -15.1104 56.0996c-19.6201 -4.49023 -40.8301 -0.179688 -56.1299 15.0996c-10.9395 10.9229 -17.667 26.002 -17.667 42.667c0 33.2969 27.0332 60.3301 60.3301 60.3301c7.88867 0 15.4268 -1.51758 22.3369 -4.27637
c12.79 -5.07031 27.0801 -3.69043 36.79 6l8.50977 8.5v-2.11035z" />
    <glyph glyph-name="pager-secondary" unicode="&#x10f815;" 
d="M448 224c0 -17.6611 -14.3389 -32 -32 -32h-320c-17.6611 0 -32 14.3389 -32 32v64c0 17.6611 14.3389 32 32 32h320c17.6611 0 32 -14.3389 32 -32v-64z" />
    <glyph glyph-name="pepper-hot-secondary" unicode="&#x10f816;" 
d="M0 -8c0 30.9072 25.0928 56 56 56c141.58 0 163.44 181.24 221.92 250.82l52.75 -24.2207v-89.6992h107.46l37.0498 -38.54c-48.5293 -87.4707 -206.54 -210.36 -419.18 -210.36c-30.9072 0 -56 25.0928 -56 56z" />
    <glyph glyph-name="pizza-secondary" unicode="&#x10f817;" horiz-adv-x="576" 
d="M380.61 316.45l-124.36 -124.45l124.32 -124.45l-0.129883 -0.129883c-31.8115 -31.7783 -75.7764 -51.4434 -124.249 -51.4434c-48.54 0 -92.5098 19.7178 -124.331 51.5732c-68.6807 68.7305 -68.6807 180.17 0 248.9l0.139648 0.129883
c31.8115 31.79 75.7822 51.4629 124.264 51.4629c48.5479 0 92.5244 -19.7256 124.347 -51.5928zM160.25 168c13.2461 0 24 10.7539 24 24s-10.7539 24 -24 24s-24 -10.7539 -24 -24s10.7539 -24 24 -24zM208.25 264c13.2461 0 24 10.7539 24 24s-10.7539 24 -24 24
s-24 -10.7539 -24 -24s10.7539 -24 24 -24zM280.25 80c0 13.2461 -10.7539 24 -24 24s-24 -10.7539 -24 -24s10.7539 -24 24 -24s24 10.7539 24 24zM455.19 304.92c25.4541 -30.6055 40.7695 -70.1543 40.7695 -113.034s-15.3154 -82.21 -40.7695 -112.815l-112.841 112.93z
M424.1 160c13.2461 0 24 10.7539 24 24s-10.7539 24 -24 24c-13.2451 0 -24 -10.7539 -24 -24s10.7549 -24 24 -24z" />
    </font>
</defs>
</svg>
